Critters Attack!

Critters Attack!

Hot
Cupio DissolviCupio Dissolvi   July 25, 2019  
Add to list
Critters Attack!

Movie info

Title
Confirmed and upcoming movie titles only! Search before adding to avoid dupes.
Critters Attack!
Year
The year the movie is set to be released.
2019
Director
Bobby Miller
Genre
Pick one or multiple movie genres.
Cinema release
First cinema release date in any country.
July 13, 2019
Digital release
Official digital release date on services such as iTunes, Amazon, Netflix. It's the first known release date, without any country restriction. So if it's out on iTunes Russia first, this would be the digital release date.
July 23, 2019
Description
Follows 20-year-old Drea| who reluctantly takes a job babysitting for a professor of a college she hopes to attend. Struggling to entertain the professor's
children Trissy and Jake| along with her own little brother Phillip | Drea takes them on a hike| unaware that mysterious alien critters have crash-landed and
started devouring every living thing they encounter.
Where you watch

Where you watch Email alert

Yes, it is available and reported below. Use the alert button to get notified when higher quality versions are available.

Download and stream reports

Is there a Critters Attack! torrent? Yes. Reports are available below.
When will Critters Attack! be available on VOD? It's set for a July 23, 2019 release.

July 25, 2019
Critters.Attack.2019.1080p.BluRay.x264.DTS-FGT
Video and audio quality: 5/5 | Source: BluRay

Submitted by: Cupio Dissolvi | Trust Rank level: Standard member
Format: Torrent | Site: Rarbg
iaInfo « Video ID : 1 Format : AVC Format/Info : Advanced Video Codec Format profile : High@L4.1 Format settings : CABAC / 4 Ref Frames Format settings, CABAC : Yes Format settings, Reference frames : 4 frames Codec ID : V_MPEG4/ISO/AVC Duration : 1 h 29 min Bit rate : 11.5 Mb/s Width : 1 920 pixels Height : 1 080 pixels Display aspect ratio : 16:9 Frame rate mode : Constant Frame rate : 23.976 (24000/1001) FPS Color space : YUV Chroma subsampling : 4:2:0 Bit depth : 8 bits Scan type : Progressive Bits/(Pixel*Frame) : 0.231 Stream size : 7.15 GiB (88%) Title : Critters.Attack.2019.1080p.BluRay.x264.DTS-FGT Writing library : x264 core 148 r2795M aaa9aa8 Encoding settings : cabac=1 / ref=4 / deblock=1:-2:-2 / analyse=0x3:0x113 / me=umh / subme=9 / psy=1 / psy_rd=1.00:0.15 / mixed_ref=1 / me_range=16 / chroma_me=1 / trellis=2 / 8x8dct=1 / cqm=0 / deadzone=21,11 / fast_pskip=1 / chroma_qp_offset=-3 / threads=24 / lookahead_threads=3 / sliced_threads=0 / nr=0 / decimate=1 / interlaced=0 / bluray_compat=0 / constrained_intra=0 / bframes=3 / b_pyramid=2 / b_adapt=1 / b_bias=0 / direct=3 / weightb=1 / open_gop=0 / weightp=2 / keyint=250 / keyint_min=25 / scenecut=40 / intra_refresh=0 / rc_lookahead=50 / rc=2pass / mbtree=1 / bitrate=11500 / ratetol=1.0 / qcomp=0.60 / qpmin=0 / qpmax=69 / qpstep=4 / cplxblur=20.0 / qblur=0.5 / vbv_maxrate=31250 / vbv_bufsize=31250 / nal_hrd=none / filler=0 / ip_ratio=1.40 / aq=1:1.00 Language : English Default : Yes Forced : No Audio ID : 2 Format : DTS Format/Info : Digital Theater Systems Codec ID : A_DTS Duration : 1 h 29 min Bit rate mode : Constant Bit rate : 1 509 kb/s Channel(s) : 6 channels Channel layout : C L R Ls Rs LFE Sampling rate : 48.0 kHz Frame rate : 93.750 FPS (512 SPF) Bit depth : 24 bits Compression mode : Lossy Stream size : 964 MiB (12%) Title : Critters.Attack.2019.1080p.BluRay.x264.DTS-FGT Language : English Default : Yes Forced : No Text ID : 3 Format : UTF-8 Codec ID : S_TEXT/UTF8 Codec ID/Info : UTF-8 Plain Text Duration : 1 h 24 min Bit rate : 43 b/s Count of elements : 942 Stream size : 26.9 KiB (0%) Language : English Default : Yes Forced : No Menu 00:00:00.000 : en:Chapter 1 00:08:59.080 : en:Chapter 2 00:17:31.967 : en:Chapter 3 00:26:11.027 : en:Chapter 4 00:36:25.224 : en:Chapter 5 00:44:02.222 : en:Chapter 6 00:51:20.243 : en:Chapter 7 00:57:42.709 : en:Chapter 8 01:06:17.932 : en:Chapter 9 01:15:14.593 : en:Chapter 10 01:25:30.875 : en:Chapter 11