Cold Pursuit

Cold Pursuit

Hot
Ivana 🌿Ivana 🌿   December 17, 2018  
Add to list
Cold Pursuit

Movie info

TITLE
Confirmed and upcoming movie titles only! Search before adding to avoid dupes.
Cold Pursuit
YEAR
The year the movie is set to be released.
2019
GENRE
Pick one or multiple movie genres.
CINEMA
First cinema release date in any country.
February 22, 2019
DESCRIPTION
Starring Liam Neeson, Emmy Rossum and Laura Dern.
WHERE YOU WATCH

Where you watch Email alert

The movie is online and reported below, Use the alert button to get notified when higher quality versions are available.

Reports

Is Cold Pursuit available online? Yes. Reports of pirated torrents and streams are available below.
When will Cold Pursuit be available on digital platforms like iTunes or Amazon? As of now, there's no release data announced. This includes iTunes, Amazon, Blu-Ray and DVD.

May 04, 2019
Cold.Pursuit.2019.1080p.BluRay.x264-GECKOS
Video and audio quality: 5/5 | Source: BluRay

Submitted by: Mr. Meeseeks | Trust Rank level: Supreme Member
Format: Torrent | Site: RARBG
X264 bitrate : 8564Kbps Resolution : 1920x800 Size : 7834MB (8214556016 Bytes) Audio : AC-3 640Kbps 6ch Language : English Subtitles : English Runtime : 1h 59mn
April 30, 2019
Cold.Pursuit.2019.720p.WEB-DL.XviD.AC3-FGT
Video and audio quality: 5/5 | Source: Official web stream

Submitted by: Mr. Meeseeks | Trust Rank level: Supreme Member
Format: Torrent | Site: RARBG
Video ID : 0 Format : MPEG-4 Visual Format profile : [email protected] Format settings, BVOP : No Format settings, QPel : No Format settings, GMC : No warppoints Format settings, Matrix : Default (H.263) Codec ID : XVID Codec ID/Hint : XviD Duration : 1 h 58 min Bit rate : 3 869 kb/s Width : 1 280 pixels Height : 534 pixels Display aspect ratio : 2.40:1 Frame rate : 23.976 (24000/1001) FPS Color space : YUV Chroma subsampling : 4:2:0 Bit depth : 8 bits Scan type : Progressive Compression mode : Lossy Bits/(Pixel*Frame) : 0.236 Stream size : 3.22 GiB (91%) Writing library : Lavc58.1.100 Audio ID : 1 Format : AC-3 Format/Info : Audio Coding 3 Commercial name : Dolby Digital Codec ID : 2000 Duration : 1 h 58 min Bit rate mode : Constant Bit rate : 384 kb/s Channel(s) : 6 channels Channel layout : L R C LFE Ls Rs Sampling rate : 48.0 kHz Frame rate : 31.250 FPS (1536 SPF) Bit depth : 16 bits Compression mode : Lossy Stream size : 327 MiB (9%) Alignment : Aligned on interleaves Interleave, duration : 42 ms (1.00 video frame) Interleave, preload duration : 512 ms Service kind : Complete Main
April 25, 2019
Cold.Pursuit.2019.HC.HDRip.XviD.AC3-EVO
Video and audio quality: 4/5 | Source: Foreign web stream

Submitted by: Mavoy | Trust Rank level: Professional
Format: Torrent | Site: TPB
Korean copy

Videos Add media

Cold Pursuit (2019 Movie) Official Trailer – Liam Neeson, Laura Dern, Emmy Rossum
Cold Pursuit (2019 Movie) Official Trailer – Lia...