Clerk.

Clerk.

Mr. MeeseeksMr. Meeseeks   October 26, 2021  
Add to list
Clerk.

Movie info

Title
Confirmed and upcoming movie titles only! Search before adding to avoid dupes.
Clerk.
Year
The year the movie is set to be released.
2021
Director
Malcom Ingram
Genre
Pick one or multiple movie genres.
Digital release
Official digital release date on services such as iTunes, Amazon, Netflix. It's the first known release date, without any country restriction. So if it's out on iTunes Russia first, this would be the digital release date.
November 23, 2021
Description
"Clerk." is a documentary film about the life and career of Kevin Smith.
Where you watch

Where you watch Email alert

Yes, it is available and reported below. Use the alert button to get notified when higher quality versions are available.

Download and stream reports

Is there a Clerk. torrent? Yes. Reports are available below.
When will Clerk. be available on VOD? It's set for a November 23, 2021 release.

November 26, 2021
Clerk.2021.1080p.AMZN.WEBRip.DDP5.1.x264-NOGRP
Video and audio quality: 5/5 | Source: Official web stream

Submitted by: Mr. Meeseeks | Trust Rank level: Supreme Member
Format: Torrent | Site: RARBG
Video ID : 1 Format : AVC Format/Info : Advanced Video Codec Format profile : High@L4 Format settings : CABAC / 4 Ref Frames Format settings, CABAC : Yes Format settings, Reference frames : 4 frames Codec ID : V_MPEG4/ISO/AVC Duration : 1 h 55 min Bit rate mode : Constant Bit rate : 7 274 kb/s Nominal bit rate : 10 000 kb/s Width : 1 920 pixels Height : 1 040 pixels Display aspect ratio : 1.85:1 Frame rate mode : Constant Frame rate : 23.976 (24000/1001) FPS Color space : YUV Chroma subsampling : 4:2:0 Bit depth : 8 bits Scan type : Progressive Bits/(Pixel*Frame) : 0.152 Stream size : 5.85 GiB (92%) Default : Yes Forced : No Color range : Limited Color primaries : BT.709 Transfer characteristics : BT.709 Matrix coefficients : BT.709 Audio ID : 2 Format : E-AC-3 Format/Info : Enhanced AC-3 Commercial name : Dolby Digital Plus Codec ID : A_EAC3 Duration : 1 h 55 min Bit rate mode : Constant Bit rate : 640 kb/s Channel(s) : 6 channels Channel layout : L R C LFE Ls Rs Sampling rate : 48.0 kHz Frame rate : 31.250 FPS (1536 SPF) Compression mode : Lossy Stream size : 527 MiB (8%) Title : English Language : English Service kind : Complete Main Default : No Forced : No Text #1 ID : 3 Format : UTF-8 Codec ID : S_TEXT/UTF8 Codec ID/Info : UTF-8 Plain Text Duration : 1 h 51 min Bit rate : 113 b/s Count of elements : 2472 Stream size : 92.8 KiB (0%) Title : English Language : English Default : No Forced : No Text #2 ID : 4 Format : UTF-8 Codec ID : S_TEXT/UTF8 Codec ID/Info : UTF-8 Plain Text Duration : 1 h 52 min Bit rate : 117 b/s Count of elements : 2677 Stream size : 97.1 KiB (0%) Title : English [SDH] Language : English Default : No Forced : No

Videos Add media

CLERK. (2021) | Official Trailer HD
CLERK. (2021) | Official Trailer HD