Class Rank

Class Rank

Mr. MeeseeksMr. Meeseeks   March 30, 2018  
News (0)
Add to list
Class Rank

Movie info

TITLE
Confirmed and upcoming movie titles only! Search before adding to avoid dupes.
YEAR
The year the movie is set to be released.
2018
DIRECTOR
GENRE
Pick one or multiple movie genres.
DESCRIPTION
Two high school outcasts team up to overthrow an incompetent school board. Directed by Eric Stoltz, and the cast features Olivia Holt, Skyler Gisondo, Kristin Chenoweth, and Bruce Dern.
WHERE YOU WATCH

Where you watch Email alert

The movie is online and reported below, Use the alert button to get notified when higher quality versions are available.

Reports

May 12, 2018
Class Rank 2017 720p WEB-DL x264 AAC-eSc
Video and audio quality: 5/5 | Source: Official web stream

Submitted by: Mr. Meeseeks | Trust Rank level: Legend Member
Format: Torrent | Site: TorrentingMe
General Format : MPEG-4 Format profile : Base Media / Version 2 Codec ID : mp42 (isom/iso2/avc1/mp41) File size : 908 MiB Duration : 1 h 42 min Overall bit rate mode : Variable Overall bit rate : 1 232 kb/s Encoded date : UTC 2018-05-12 17:02:15 Tagged date : UTC 2018-05-12 17:42:26 Video ID : 1 Format : AVC Format/Info : Advanced Video Codec Format profile : [email protected] Format settings : CABAC / 4 Ref Frames Format settings, CABAC : Yes Format settings, RefFrames : 4 frames Codec ID : avc1 Codec ID/Info : Advanced Video Coding Duration : 1 h 42 min Bit rate : 1 100 kb/s Width : 1 280 pixels Height : 720 pixels Display aspect ratio : 16:9 Frame rate mode : Variable Frame rate : 23.976 FPS Minimum frame rate : 12.048 FPS Maximum frame rate : 24.390 FPS Color space : YUV Chroma subsampling : 4:2:0 Bit depth : 8 bits Scan type : Progressive Bits/(Pixel*Frame) : 0.050 Stream size : 810 MiB (89%) Writing library : x264 core 142 r2479 dd79a61 Encoding settings : cabac=1 / ref=3 / deblock=1:-1:-1 / analyse=0x3:0x113 / me=hex / subme=7 / psy=1 / psy_rd=1.00:0.15 / mixed_ref=1 / me_range=16 / chroma_me=1 / trellis=1 / 8x8dct=1 / cqm=0 / deadzone=21,11 / fast_pskip=1 / chroma_qp_offset=-3 / threads=12 / lookahead_threads=2 / sliced_threads=0 / nr=0 / decimate=1 / interlaced=0 / bluray_compat=0 / constrained_intra=0 / bframes=3 / b_pyramid=2 / b_adapt=1 / b_bias=0 / direct=1 / weightb=1 / open_gop=0 / weightp=2 / keyint=240 / keyint_min=24 / scenecut=40 / intra_refresh=0 / rc_lookahead=40 / rc=2pass / mbtree=1 / bitrate=1100 / ratetol=1.0 / qcomp=0.60 / qpmin=0 / qpmax=69 / qpstep=4 / cplxblur=20.0 / qblur=0.5 / vbv_maxrate=62500 / vbv_bufsize=78125 / nal_hrd=none / filler=0 / ip_ratio=1.40 / aq=1:1.00 Language : English Encoded date : UTC 2018-05-12 17:02:15 Tagged date : UTC 2018-05-12 17:02:15 Color range : Limited Color primaries : BT.709 Transfer characteristics : BT.709 Matrix coefficients : BT.709 Menus : 4 Audio ID : 2 Format : AAC Format/Info : Advanced Audio Codec Format profile : LC Codec ID : mp4a-40-2 Duration : 1 h 42 min Bit rate mode : Variable Bit rate : 126 kb/s Maximum bit rate : 200 kb/s Channel(s) : 2 channels Channel positions : Front: L R Sampling rate : 48.0 kHz Frame rate : 46.875 FPS (1024 SPF) Compression mode : Lossy Stream size : 92.6 MiB (10%) Title : Stereo / Stereo Language : English Default : Yes Alternate group : 1 Encoded date : UTC 2018-05-12 17:02:15 Tagged date : UTC 2018-05-12 17:02:15 Menu ID : 4 Codec ID : text Duration : 1 h 42 min Encoded date : UTC 2018-05-12 17:42:26 Tagged date : UTC 2018-05-12 17:42:26 Menu For : 1 00:00:00.000 : Ce st La Vie 00:05:43.343 : To Do List 00:13:05.118 : This Is a Hybrid 00:19:05.936 : Tandem 00:24:17.748 : Arab Spring in Livingston 00:34:13.009 : Shuffleboard 00:40:47.820 : Bernard Wants Your Vote 00:46:19.902 : Welcome to Nam 00:52:13.672 : Dagger in the Back 00:56:55.579 : Lithuania in the Spring 01:04:21.566 : Debate Prep 01:10:38.734 : Lincoln-Douglas 01:17:06.789 : You Captured My Essence 01:24:23.975 : Hot Quiche 01:29:41.459 : Election Returns 01:36:51.848 : Credits Bit rate mode : VBR

Movie News

There are no member news items for this movie.
To write a comment please register or