City of Lies

City of Lies

Hot
Mr. MeeseeksMr. Meeseeks   May 24, 2018  
Add to list
City of Lies

Movie info

TITLE
Confirmed and upcoming movie titles only! Search before adding to avoid dupes.
City of Lies
YEAR
The year the movie is set to be released.
2018
DIRECTOR
GENRE
Pick one or multiple movie genres.
CINEMA
First cinema release date in any country.
September 07, 2018
DESCRIPTION
Johnny Depp, and Forest Whitaker star in Brad Furman’s film about the criminal investigation of the murders of Tupac Shakur, and The Notorious B.I.G.
WHERE YOU WATCH

Where you watch Email alert

The movie is online and reported below, Use the alert button to get notified when higher quality versions are available.

Reports

Is City of Lies available online? Yes. Reports of pirated torrents and streams are available below.
When will City of Lies be available on digital platforms like iTunes or Amazon? As of now, there's no release data announced. This includes iTunes, Amazon, Blu-Ray and DVD.

June 15, 2019
City.of.Lies.2018.1080p.BluRay.x264.DTS-HD.MA.5.1-FGT
Video and audio quality: 5/5 | Source: BluRay

Submitted by: Mr. Meeseeks | Trust Rank level: Supreme Member
Format: Torrent | Site: RARBG
Video ID : 1 Format : AVC Format/Info : Advanced Video Codec Format profile : [email protected] Format settings : CABAC / 4 Ref Frames Format settings, CABAC : Yes Format settings, ReFrames : 4 frames Codec ID : V_MPEG4/ISO/AVC Duration : 1 h 52 min Bit rate : 11.5 Mb/s Width : 1 920 pixels Height : 804 pixels Display aspect ratio : 2.40:1 Frame rate mode : Constant Frame rate : 24.000 FPS Color space : YUV Chroma subsampling : 4:2:0 Bit depth : 8 bits Scan type : Progressive Bits/(Pixel*Frame) : 0.310 Stream size : 9.02 GiB (84%) Title : City.of.Lies.2018.1080p.BluRay.x264.DTS-HD.MA5.1-FGT Writing library : x264 core 148 r2795M aaa9aa8 Encoding settings : cabac=1 / ref=4 / deblock=1:-2:-2 / analyse=0x3:0x113 / me=umh / subme=9 / psy=1 / psy_rd=1.00:0.15 / mixed_ref=1 / me_range=16 / chroma_me=1 / trellis=2 / 8x8dct=1 / cqm=0 / deadzone=21,11 / fast_pskip=1 / chroma_qp_offset=-3 / threads=24 / lookahead_threads=3 / sliced_threads=0 / nr=0 / decimate=1 / interlaced=0 / bluray_compat=0 / constrained_intra=0 / bframes=3 / b_pyramid=2 / b_adapt=1 / b_bias=0 / direct=3 / weightb=1 / open_gop=0 / weightp=2 / keyint=250 / keyint_min=25 / scenecut=40 / intra_refresh=0 / rc_lookahead=50 / rc=2pass / mbtree=1 / bitrate=11500 / ratetol=1.0 / qcomp=0.60 / qpmin=0 / qpmax=69 / qpstep=4 / cplxblur=20.0 / qblur=0.5 / vbv_maxrate=31250 / vbv_bufsize=31250 / nal_hrd=none / filler=0 / ip_ratio=1.40 / aq=1:1.00 Language : English Default : Yes Forced : No Audio ID : 2 Format : DTS XLL Format/Info : Digital Theater Systems Commercial name : DTS-HD Master Audio Codec ID : A_DTS Duration : 1 h 52 min Bit rate mode : Variable Bit rate : 2 257 kb/s Channel(s) : 6 channels Channel layout : C L R Ls Rs LFE Sampling rate : 48.0 kHz Frame rate : 93.750 FPS (512 SPF) Bit depth : 24 bits Compression mode : Lossless Stream size : 1.77 GiB (16%) Title : City.of.Lies.2018.1080p.BluRay.x264.DTS-HD.MA5.1-FGT Language : English Default : Yes Forced : No Menu 00:00:00.000 : en:Chapter 01 00:05:23.083 : en:Chapter 02 00:10:00.208 : en:Chapter 03 00:16:00.625 : en:Chapter 04 00:22:14.208 : en:Chapter 05 00:27:25.542 : en:Chapter 06 00:33:04.875 : en:Chapter 07 00:38:14.750 : en:Chapter 08 00:43:31.083 : en:Chapter 09 00:49:31.458 : en:Chapter 10 00:55:02.833 : en:Chapter 11 01:00:54.167 : en:Chapter 12 01:07:40.792 : en:Chapter 13 01:12:40.792 : en:Chapter 14 01:17:49.292 : en:Chapter 15 01:21:38.500 : en:Chapter 16 01:27:32.875 : en:Chapter 17 01:32:16.250 : en:Chapter 18 01:38:06.667 : en:Chapter 19 01:43:18.833 : en:Chapter 20
June 15, 2019
City.of.Lies.2019.1080p.Bluray.X264-EVO
Video and audio quality: 5/5 | Source: BluRay

Submitted by: Ivana 🌿 | Trust Rank level: Legend Member
Format: Torrent | Site: TorrentGalaxy
Duration: 1h 52min Resolution: 1920x804 Language: English

Videos Add media

City of Lies Trailer #1 (2018) | Movieclips Trailers
City of Lies Trailer #1 (2018) | Movieclips Traile...