Carmen

Carmen

Mr. MeeseeksMr. Meeseeks   August 17, 2022  
Add to list
Carmen

Movie info

Title
Confirmed and upcoming movie titles only! Search before adding to avoid dupes.
Carmen
Year
The year the movie is set to be released.
2022
Director
Valerie Buhagiar
Genre
Pick one or multiple movie genres.
Digital release
Official digital release date on services such as iTunes, Amazon, Netflix. It's the first known release date, without any country restriction. So if it's out on iTunes Russia first, this would be the digital release date.
September 23, 2022
Description
Starring Natasha McElhone, Michaela Farrugia, Steven Love, and Richard Clarkin.
Where you watch

Where you watch Email alert

Yes, it is available and reported below. Use the alert button to get notified when higher quality versions are available.

Download and stream reports

Is there a Carmen torrent? Yes. Reports are available below.
When will Carmen be available on VOD? It's set for a September 23, 2022 release.

September 23, 2022
Carmen.2022.1080p.WEBRip.DD5.1.x264-CM
Video and audio quality: 5/5 | Source: Official web stream

Submitted by: Mr. Meeseeks | Trust Rank level: Supreme Member
Format: Torrent | Site: RARBG
Video ID : 1 Format : AVC Format/Info : Advanced Video Codec Format profile : High@L4 Format settings : CABAC / 5 Ref Frames Format settings, CABAC : Yes Format settings, Reference frames : 5 frames Codec ID : V_MPEG4/ISO/AVC Duration : 1 h 27 min Bit rate : 6 700 kb/s Width : 1 916 pixels Height : 804 pixels Display aspect ratio : 2.40:1 Frame rate mode : Constant Frame rate : 23.976 (24000/1001) FPS Color space : YUV Chroma subsampling : 4:2:0 Bit depth : 8 bits Scan type : Progressive Bits/(Pixel*Frame) : 0.181 Stream size : 4.08 GiB (95%) Language : English Default : Yes Forced : No Color range : Limited Color primaries : BT.709 Transfer characteristics : BT.709 Matrix coefficients : BT.709 Audio ID : 2 Format : AC-3 Format/Info : Audio Coding 3 Commercial name : Dolby Digital Codec ID : A_AC3 Duration : 1 h 27 min Bit rate mode : Constant Bit rate : 384 kb/s Channel(s) : 6 channels Channel layout : L R C LFE Ls Rs Sampling rate : 48.0 kHz Frame rate : 31.250 FPS (1536 SPF) Compression mode : Lossy Stream size : 239 MiB (5%) Language : English Service kind : Complete Main Default : Yes Forced : No

Videos Add media

Carmen - Official Trailer | In Theaters & On Demand September 23
Carmen - Official Trailer | In Theaters & On Deman...