Cagefighter

Cagefighter

Mr. MeeseeksMr. Meeseeks   October 02, 2020  
Add to list
Cagefighter

Movie info

Title
Confirmed and upcoming movie titles only! Search before adding to avoid dupes.
Cagefighter
Year
The year the movie is set to be released.
2020
Director
Jesse Quinones
Genre
Pick one or multiple movie genres.
Digital release
Official digital release date on services such as iTunes, Amazon, Netflix. It's the first known release date, without any country restriction. So if it's out on iTunes Russia first, this would be the digital release date.
October 09, 2020
Description
Starring Alex Montagnani, Jonathan Good aka Jon Moxley aka Dean Ambrose, Gina Gershon, Chuck Liddell, Elijah Baker, Luke Rockhold, Jay Reso, and Georgia Bradner.
Where you watch

Where you watch Email alert

Yes, it is available and reported below. Use the alert button to get notified when higher quality versions are available.

Download and stream reports

Is there a Cagefighter torrent? Yes. Reports are available below.
When will Cagefighter be available on VOD? It's set for a October 09, 2020 release.

November 27, 2020
Cagefighter.2020.1080p.BluRay.x264.DTS-HD.MA.5.1-MT
Video and audio quality: 5/5 | Source: BluRay

Submitted by: Mr. Meeseeks | Trust Rank level: Supreme Member
Format: Torrent | Site: RARBG
Video ID : 1 Format : AVC Format/Info : Advanced Video Codec Format profile : High@L4.1 Format settings : CABAC / 5 Ref Frames Format settings, CABAC : Yes Format settings, Reference frames : 5 frames Codec ID : V_MPEG4/ISO/AVC Duration : 1 h 38 min Bit rate : 18.3 Mb/s Width : 1 920 pixels Height : 804 pixels Display aspect ratio : 2.40:1 Frame rate mode : Constant Frame rate : 23.976 (24000/1001) FPS Color space : YUV Chroma subsampling : 4:2:0 Bit depth : 8 bits Scan type : Progressive Bits/(Pixel*Frame) : 0.494 Stream size : 12.5 GiB (85%) Writing library : x264 core 157 r2938 2b00a84 TnP@MTeam Mod Encoding settings : cabac=1 / ref=5 / deblock=1:-3:-3 / analyse=0x3:0x133 / me=umh / subme=10 / psy=1 / psy_rd=1.05:0.00 / mixed_ref=1 / me_range=32 / chroma_me=1 / trellis=2 / 8x8dct=1 / cqm=0 / deadzone=21,11 / fast_pskip=0 / chroma_qp_offset=-2 / threads=12 / lookahead_threads=2 / sliced_threads=0 / nr=0 / decimate=0 / interlaced=0 / bluray_compat=0 / constrained_intra=0 / bframes=8 / b_pyramid=2 / b_adapt=2 / b_bias=0 / direct=3 / weightb=1 / open_gop=0 / weightp=2 / keyint=250 / keyint_min=24 / scenecut=40 / intra_refresh=0 / rc_lookahead=250 / rc=crf / mbtree=0 / crf=16.8 / qcomp=0.60 / qpmin=0 / qpmax=69 / qpstep=4 / vbv_maxrate=62500 / vbv_bufsize=78125 / crf_max=0.0 / nal_hrd=none / filler=0 / ip_ratio=1.30 / pb_ratio=1.20 / aq=3:0.80 Language : English Default : Yes Forced : No Color range : Limited Color primaries : BT.709 Matrix coefficients : BT.709 Audio ID : 2 Format : DTS XLL Format/Info : Digital Theater Systems Commercial name : DTS-HD Master Audio Codec ID : A_DTS Duration : 1 h 38 min Bit rate mode : Variable Bit rate : 3 234 kb/s Channel(s) : 6 channels Channel layout : C L R Ls Rs LFE Sampling rate : 48.0 kHz Frame rate : 93.750 FPS (512 SPF) Bit depth : 24 bits Compression mode : Lossless Stream size : 2.22 GiB (15%) Language : English Default : Yes Forced : No Text #1 ID : 3 Format : UTF-8 Codec ID : S_TEXT/UTF8 Codec ID/Info : UTF-8 Plain Text Duration : 1 h 37 min Bit rate : 93 b/s Count of elements : 2123 Stream size : 67.0 KiB (0%) Title : SRT Language : English Default : Yes Forced : No Text #2 ID : 4 Format : PGS Muxing mode : zlib Codec ID : S_HDMV/PGS Codec ID/Info : Picture based subtitle format used on BDs/HD-DVDs Duration : 1 h 37 min Bit rate : 107 kb/s Count of elements : 4406 Stream size : 74.6 MiB (0%) Language : English Default : No Forced : No
October 10, 2020
Cagefighter.2020.1080p.WEB-DL.DD5.1.H.264-EVO
Video and audio quality: 5/5 | Source: Official web stream

Submitted by: Ivana 🌿 | Trust Rank level: Supreme Member
Format: Torrent | Site: TorrentGalaxy
Duration: 1h 38min Resolution: 1916x798 Language: English

Videos Add media

Cagefighter - Official Trailer
Cagefighter - Official Trailer