Buffaloed

Buffaloed

Hot
baratezabarateza   December 21, 2019  
Add to list
Zoey Deutch in Buffaloed

Movie info

Title
Confirmed and upcoming movie titles only! Search before adding to avoid dupes.
Buffaloed
Year
The year the movie is set to be released.
2020
Director
Tanya Wexler
Genre
Pick one or multiple movie genres.
Cinema release
First cinema release date in any country.
February 14, 2020
Description
An extremely energetic picture about a hustler who wants to get out of Buffalo, NY.
Where you watch

Where you watch Email alert

Yes, it is available and reported below. Use the alert button to get notified when higher quality versions are available.

Download and stream reports

Is there a Buffaloed torrent? Yes. Reports are available below.
When will Buffaloed be available on digital platforms like iTunes, Amazon or Apple+? As of now, there's no release date announced. This includes iTunes, Amazon, Blu-Ray and DVD.

July 29, 2020
Buffaloed.2019.1080p.BluRay.x264.DTS-HD.MA.5.1-FGT
Video and audio quality: 5/5 | Source: BluRay

Submitted by: Mr. Meeseeks | Trust Rank level: Supreme Member
Format: Torrent | Site: RARBG
Video ID : 1 Format : AVC Format/Info : Advanced Video Codec Format profile : High@L4.1 Format settings : CABAC / 4 Ref Frames Format settings, CABAC : Yes Format settings, Reference frames : 4 frames Codec ID : V_MPEG4/ISO/AVC Duration : 1 h 35 min Bit rate : 11.5 Mb/s Width : 1 920 pixels Height : 800 pixels Display aspect ratio : 2.40:1 Frame rate mode : Constant Frame rate : 23.976 (24000/1001) FPS Color space : YUV Chroma subsampling : 4:2:0 Bit depth : 8 bits Scan type : Progressive Bits/(Pixel*Frame) : 0.312 Stream size : 7.65 GiB (76%) Title : Buffaloed.2019.1080p.BluRay.x264.DTS-HD.MA.5.1-FGT Writing library : x264 core 148 r2748 97eaef2 Encoding settings : cabac=1 / ref=4 / deblock=1:-2:-2 / analyse=0x3:0x113 / me=umh / subme=9 / psy=1 / psy_rd=1.00:0.15 / mixed_ref=1 / me_range=16 / chroma_me=1 / trellis=2 / 8x8dct=1 / cqm=0 / deadzone=21,11 / fast_pskip=1 / chroma_qp_offset=-3 / threads=72 / lookahead_threads=3 / sliced_threads=0 / nr=0 / decimate=1 / interlaced=0 / bluray_compat=0 / constrained_intra=0 / bframes=3 / b_pyramid=2 / b_adapt=1 / b_bias=0 / direct=3 / weightb=1 / open_gop=0 / weightp=2 / keyint=250 / keyint_min=25 / scenecut=40 / intra_refresh=0 / rc_lookahead=50 / rc=2pass / mbtree=1 / bitrate=11500 / ratetol=1.0 / qcomp=0.60 / qpmin=0 / qpmax=69 / qpstep=4 / cplxblur=20.0 / qblur=0.5 / vbv_maxrate=31250 / vbv_bufsize=31250 / nal_hrd=none / filler=0 / ip_ratio=1.40 / aq=1:1.00 Language : English Default : Yes Forced : No Audio ID : 2 Format : DTS XLL Format/Info : Digital Theater Systems Commercial name : DTS-HD Master Audio Codec ID : A_DTS Duration : 1 h 35 min Bit rate mode : Variable Bit rate : 3 658 kb/s Channel(s) : 6 channels Channel layout : C L R Ls Rs LFE Sampling rate : 48.0 kHz Frame rate : 93.750 FPS (512 SPF) Bit depth : 24 bits Compression mode : Lossless Stream size : 2.43 GiB (24%) Title : Buffaloed.2019.1080p.BluRay.x264.DTS-HD.MA.5.1-FGT Language : English Default : Yes Forced : No Text #1 ID : 3 Format : UTF-8 Codec ID : S_TEXT/UTF8 Codec ID/Info : UTF-8 Plain Text Duration : 1 h 35 min Bit rate : 94 b/s Count of elements : 2211 Stream size : 65.6 KiB (0%) Title : English-SRT Language : English Default : Yes Forced : No
February 14, 2020
Buffaloed.2019.HDRip.XviD.AC3-EVO
Video and audio quality: 5/5 | Source: Official web stream

Submitted by: Mr. Meeseeks | Trust Rank level: Supreme Member
Format: Torrent | Site: 1337x
Container = Matroska (avi) Duration = 01:35:00.782 Filesize = 1 GiB Overall bitrate = 2 075 kb/s ViDEO Codec info = AVC High@L4.1 | V_MPEG4/ISO/AVC Resolution = 720x300 Display AR = 2.400 | 2.40:1 Bitrate = 1 700 kb/s Framerate = CFR 23.976 Color space = YUV Chroma subsampling = 4:2:0 Encoder = x264 - core 142 r2479 dd79a61 AUDiO Codec info = AC-3 | A_AC3 Channels = 6 Bitrate = CBR 384 kb/s Samplerate = 48.0 kHz Language = English

Videos Add media

Buffaloed Trailer - Magnolia Pictures
Buffaloed Trailer - Magnolia Pictures