Brahms: The Boy II

Brahms: The Boy II

Mr. MeeseeksMr. Meeseeks   January 08, 2020  
Add to list
Brahms: The Boy II

Movie info

Title
Confirmed and upcoming movie titles only! Search before adding to avoid dupes.
Brahms: The Boy II
Year
The year the movie is set to be released.
2020
Genre
Pick one or multiple movie genres.
Cinema release
First cinema release date in any country.
February 21, 2020
Description
Starring Katie Holmes, Owain Yeoman, Christopher Convery, and Ralph Ineson.
Where you watch

Where you watch Email alert

The movie is online and reported below, Use the alert button to get notified when higher quality versions are available.

Download and stream reports

Can I download or stream Brahms: The Boy II? Yes. Reports of pirated torrents and streams are available below.
When will Brahms: The Boy II be available on digital platforms like iTunes, Amazon or Apple+? As of now, there's no release date announced. This includes iTunes, Amazon, Blu-Ray and DVD.

April 03, 2020
Brahms.The.Boy.II.2020.1080p.WEB-DL.DD5.1.H264-FGT
Video and audio quality: 5/5 | Source: Official web stream

Submitted by: armiestice | Trust Rank level: Senior Member
Format: Torrent | Site: RARBG
Video ID : 1 Format : AVC Format/Info : Advanced Video Codec Format profile : High@L4 Format settings : CABAC / 5 Ref Frames Format settings, CABAC : Yes Format settings, Reference frames : 5 frames Codec ID : V_MPEG4/ISO/AVC Duration : 1 h 26 min Bit rate : 4 558 kb/s Width : 1 920 pixels Height : 804 pixels Display aspect ratio : 2.40:1 Frame rate mode : Constant Frame rate : 23.976 (23976/1000) FPS Color space : YUV Chroma subsampling : 4:2:0 Bit depth : 8 bits Scan type : Progressive Bits/(Pixel*Frame) : 0.123 Stream size : 2.76 GiB (92%) Title : Brahms.The.Boy.II.2020.1080p.WEB-DL.DD5.1.H264-FGT Language : English Default : Yes Forced : No Color range : Limited Color primaries : BT.709 Transfer characteristics : BT.709 Matrix coefficients : BT.709 Audio ID : 2 Format : AC-3 Format/Info : Audio Coding 3 Commercial name : Dolby Digital Codec ID : A_AC3 Duration : 1 h 26 min Bit rate mode : Constant Bit rate : 384 kb/s Channel(s) : 6 channels Channel layout : L R C LFE Ls Rs Sampling rate : 48.0 kHz Frame rate : 31.250 FPS (1536 SPF) Bit depth : 16 bits Compression mode : Lossy Stream size : 238 MiB (8%) Title : Brahms.The.Boy.II.2020.1080p.WEB-DL.DD5.1.H264-FGT Language : English Service kind : Complete Main Default : Yes Forced : No
March 18, 2020
Brahms.The.Boy.II.2020.KORSUB.HDRip.x264-STUTTERSHIT
Video and audio quality: 4/5 | Source: Foreign web stream

Submitted by: Cupio Dissolvi | Trust Rank level: Standard member
Format: Torrent | Site: RARBG
Stream size : 159 MiB (19%)
February 21, 2020
Brahms.The.Boy.2.2020.HDCAM.850MB.c1nem4.x264-SUNSCREEN
Video and audio quality: 1/5 | Source: Camera

Submitted by: Mr. Meeseeks | Trust Rank level: Supreme Member
Format: Torrent | Site: TorrentGalaxy
Container = Matroska (mkv) Duration = 01:19:44.629 Filesize = 846 MiB Overall bitrate = 1 484 kb/s Video Codec info = AVC High@L3 | V_MPEG4/ISO/AVC Resolution = 720x304 Display AR = 2.388 | 2.40:1 Bitrate = Framerate = VFR Color space = YUV Chroma subsampling = 4:2:0 Encoder = x264 - core 157 Audio Codec info = AAC | A_AAC-2 Channels = 2 Bitrate = Samplerate = 48.0 kHz Language = English

Videos Add media

Brahms: The Boy 2 | Official Trailer [HD] | In Theaters February 21, 2020
Brahms: The Boy 2 | Official Trailer [HD] | In The...