Boys State

Boys State

Hot
Mr. MeeseeksMr. Meeseeks   July 11, 2020  
Add to list
Boys State

Movie info

Title
Confirmed and upcoming movie titles only! Search before adding to avoid dupes.
Boys State
Year
The year the movie is set to be released.
2020
Director
Amanda McBaine & Jesse Moss
Genre
Pick one or multiple movie genres.
Cinema release
First cinema release date in any country.
July 31, 2020
Digital release
Official digital release date on services such as iTunes, Amazon, Netflix. It's the first known release date, without any country restriction. So if it's out on iTunes Russia first, this would be the digital release date.
August 14, 2020
Description
"Boys State" is a new documentary from A24 about a group of a thousand teenage boys that form a government.
Where you watch

Where you watch Email alert

Yes, it is available and reported below. Use the alert button to get notified when higher quality versions are available.

Download and stream reports

Is there a Boys State torrent? Yes. Reports are available below.
When will Boys State be available on VOD? It's set for a August 14, 2020 release.

August 14, 2020
Boys.State.2020.1080p.WEB.h264-TRUMP
Video and audio quality: 5/5 | Source: Official web stream

Submitted by: Mr. Meeseeks | Trust Rank level: Supreme Member
Format: Torrent | Site: RARBG
Video ID : 1 Format : AVC Format/Info : Advanced Video Codec Format profile : High@L4 Format settings : CABAC / 5 Ref Frames Format settings, CABAC : Yes Format settings, Reference frames : 5 frames Codec ID : V_MPEG4/ISO/AVC Duration : 1 h 49 min Bit rate : 9 859 kb/s Width : 1 920 pixels Height : 804 pixels Display aspect ratio : 2.40:1 Frame rate mode : Constant Frame rate : 23.976 (24000/1001) FPS Color space : YUV Chroma subsampling : 4:2:0 Bit depth : 8 bits Scan type : Progressive Bits/(Pixel*Frame) : 0.266 Stream size : 7.53 GiB (93%) Language : English Default : Yes Forced : No Color range : Limited Color primaries : BT.709 Transfer characteristics : BT.709 Matrix coefficients : BT.709 Audio ID : 2 Format : E-AC-3 JOC Format/Info : Enhanced AC-3 with Joint Object Coding Commercial name : Dolby Digital Plus with Dolby Atmos Codec ID : A_EAC3 Duration : 1 h 49 min Bit rate mode : Constant Bit rate : 768 kb/s Channel(s) : 6 channels Channel layout : L R C LFE Ls Rs Sampling rate : 48.0 kHz Frame rate : 31.250 FPS (1536 SPF) Compression mode : Lossy Stream size : 601 MiB (7%) Language : English Service kind : Complete Main Default : Yes Forced : No Complexity index : 16 Number of dynamic objects : 15 Bed channel count : 1 channel Bed channel configuration : LFE

Videos Add media

Boys State | Official Trailer HD | A24
Boys State | Official Trailer HD | A24