Black Water

Black Water

#2 Fool#2 Fool   May 18, 2018  
News (0)
Add to list
Black Water

Movie info

TITLE
Confirmed and upcoming movie titles only! Search before adding to avoid dupes.
YEAR
The year the movie is set to be released.
2018
GENRE
Pick one or multiple movie genres.
CINEMA
First cinema release date in any country.
April 05, 2018
DESCRIPTION
An action movie that takes place on a submarine, starring Dolph Lundgren, and Jean-Claude Van Damme.
WHERE YOU WATCH

Where you watch Email alert

The movie is online and reported below, Use the alert button to get notified when higher quality versions are available.

Reports

May 27, 2018
Black.Water.2018.1080p.BluRay.x264.DTS-HD.MA.5.1-FGT
Video and audio quality: 5/5 | Source: BluRay

Submitted by: Mr. Meeseeks | Trust Rank level: Legend Member
Format: Torrent | Site: RARBG
Video ID : 1 Format : AVC Format/Info : Advanced Video Codec Format profile : [email protected] Format settings : CABAC / 4 Ref Frames Format settings, CABAC : Yes Format settings, ReFrames : 4 frames Codec ID : V_MPEG4/ISO/AVC Duration : 1 h 44 min Bit rate : 11.5 Mb/s Width : 1 920 pixels Height : 804 pixels Display aspect ratio : 2.40:1 Frame rate mode : Constant Frame rate : 23.976 (24000/1001) FPS Color space : YUV Chroma subsampling : 4:2:0 Bit depth : 8 bits Scan type : Progressive Bits/(Pixel*Frame) : 0.311 Stream size : 8.25 GiB (86%) Title : Black.Water.2018.1080p.BluRay.x264.DTS-HD.MA.5.1-FGT Writing library : x264 core 148 r2795M aaa9aa8 Language : English Default : Yes Forced : No Audio ID : 2 Format : DTS Format/Info : Digital Theater Systems Format profile : MA / Core Codec ID : A_DTS Duration : 1 h 44 min Bit rate mode : Variable / Constant Bit rate : 1 920 kb/s / 1 509 kb/s Channel(s) : 6 channels Channel positions : Front: L C R, Side: L R, LFE Sampling rate : 48.0 kHz Frame rate : 93.750 FPS (512 SPF) Bit depth : 16 bits Compression mode : Lossless / Lossy Stream size : 1.40 GiB (14%) Title : Black.Water.2018.1080p.BluRay.x264.DTS-HD.MA.5.1-FGT Language : English Default : Yes Forced : No
May 22, 2018
Black.Water.2018.720p.WEB-DL.X264.AC3-EVO
Video and audio quality: 5/5 | Source: Official web stream

Submitted by: Mr. Meeseeks | Trust Rank level: Legend Member
Format: Torrent | Site: TorrentingMe
ViDEO: 3100 Kbps ([email protected]) RESOLUTiON: 1916x800 RUNTiME: 1h 44m 43s SUBTiTLES: No. AUDiO: 384 Kbps AC3 5.1 LANGUAGE: ENGLiSH ENCODER: DdHD

Videos Add media

BLACK WATER Official Trailer (2018) Jean-Claude Van Damme, Dolph Lundgren
BLACK WATER Official Trailer (2018) Jean-Claude Va...

Movie News

There are no member news items for this movie.
To write a comment please register or