Black Site

Black Site

Hot
Mr. MeeseeksMr. Meeseeks   July 05, 2018  
Add to list
Black Site

Movie info

Title
Confirmed and upcoming movie titles only! Search before adding to avoid dupes.
Black Site
Year
The year the movie is set to be released.
2018
Director
Genre
Pick one or multiple movie genres.
Description
Starring Jessica-Jane Stafford, Lauren Ashley Carter, Sophia Del Pizzo, Mike Beckingham, and Angela Dixon.
Where you watch

Where you watch Email alert

Yes, it is available and reported below. Use the alert button to get notified when higher quality versions are available.

Download and stream reports

Can I download or stream Black Site? Yes. Reports of pirated torrents and streams are available below.
When will Black Site be available on digital platforms like iTunes, Amazon or Apple+? As of now, there's no release date announced. This includes iTunes, Amazon, Blu-Ray and DVD.

February 14, 2020
Black.Site.2018.1080p.BluRay.REMUX.AVC.DTS-HD.MA.5.1-FGT
Video and audio quality: 5/5 | Source: BluRay

Submitted by: Mr. Meeseeks | Trust Rank level: Supreme Member
Format: Torrent | Site: RARBG
Video ID : 1 Format : AVC Format/Info : Advanced Video Codec Format profile : High@L4.1 Format settings : CABAC / 2 Ref Frames Format settings, CABAC : Yes Format settings, Reference frames : 2 frames Format settings, GOP : M=3, N=22 Codec ID : V_MPEG4/ISO/AVC Duration : 1 h 27 min Bit rate mode : Variable Bit rate : 19.6 Mb/s Maximum bit rate : 30.2 Mb/s Width : 1 920 pixels Height : 1 080 pixels Display aspect ratio : 16:9 Frame rate mode : Constant Frame rate : 23.976 (24000/1001) FPS Color space : YUV Chroma subsampling : 4:2:0 Bit depth : 8 bits Scan type : Progressive Bits/(Pixel*Frame) : 0.394 Stream size : 12.0 GiB (93%) Title : Black.Site.2018.1080p.BluRay.REMUX.AVC.DTS-HD.MA.5.1-FGT Language : English Default : No Forced : No Audio ID : 2 Format : DTS XLL Format/Info : Digital Theater Systems Commercial name : DTS-HD Master Audio Codec ID : A_DTS Duration : 1 h 27 min Bit rate mode : Variable Bit rate : 1 474 kb/s Channel(s) : 6 channels Channel layout : C L R Ls Rs LFE Sampling rate : 48.0 kHz Frame rate : 93.750 FPS (512 SPF) Bit depth : 16 bits Compression mode : Lossless Stream size : 923 MiB (7%) Title : Black.Site.2018.1080p.BluRay.REMUX.AVC.DTS-HD.MA.5.1-FGT Language : English Default : Yes Forced : No Text ID : 3 Format : UTF-8 Codec ID : S_TEXT/UTF8 Codec ID/Info : UTF-8 Plain Text Duration : 1 h 20 min Bit rate : 46 b/s Count of elements : 929 Stream size : 27.7 KiB (0%) Title : English-SRT Language : English Default : Yes Forced : No
April 09, 2019
Black.Site.2018.HDRip.AC3.x264-CMRG
Video and audio quality: 5/5 | Source: Official web stream

Submitted by: Mr. Meeseeks | Trust Rank level: Supreme Member
Format: Torrent | Site: 1337x
Container = Matroska (mkv) Duration = 01:27:34.144 Filesize = 1 GiB Overall bitrate = 2 107 kb/s ViDEO Codec info = AVC High@L4.1 | V_MPEG4/ISO/AVC Resolution = 720x304 Display AR = 2.368 | 2.35:1 Bitrate = 1 801 kb/s Framerate = CFR 23.976 Color space = YUV Chroma subsampling = 4:2:0 Encoder = x264 - core 152 r2851 ba24899 AUDiO Codec info = AC-3 | A_AC3 Channels = 6 Bitrate = CBR 384 kb/s Samplerate = 48.0 kHz Language = English Included subtitles English, English