Black Is King

Black Is King

MojibMojib   July 26, 2020  
Add to list
Beyonce Black is King 2020 film
Beyonce Black Is King photo
Beyonce Black Is King photo
Black is King

Movie info

Title
Confirmed and upcoming movie titles only! Search before adding to avoid dupes.
Black Is King
Year
The year the movie is set to be released.
2020
Genre
Pick one or multiple movie genres.
Digital release
Official digital release date on services such as iTunes, Amazon, Netflix. It's the first known release date, without any country restriction. So if it's out on iTunes Russia first, this would be the digital release date.
July 31, 2020
Description
Co-directed by Beyoncé and described as a visual album, and a film. There hasn't been a massive PR campaign for the project and the trailers have been very non-mainstream, slightly obscure and heavy on its visuals. It's been described in the press release as a voyage throughout time focusing on black heritage.
It's dropping exclusively on Disney+ so expect it to spread to illegal torrent and streaming sites the minute it goes live.
Where you watch

Where you watch Email alert

Yes, it is available and reported below. Use the alert button to get notified when higher quality versions are available.

Download and stream reports

Can I download or stream Black Is King? Yes. Reports of pirated torrents and streams are available below.
When will Black Is King be available on digital platforms like iTunes or Amazon? It's set for a July 31, 2020 release. This likely includes iTunes and Amazon unless it is an exclusive Netflix, or similar, release. Physical versions on Blu-Ray or DVD will likely follow.

July 31, 2020
Black.Is.King.2020.1080p.DSNP.WEBRip.DDP5.1.x264-CM
Video and audio quality: 5/5 | Source: Official web stream

Submitted by: Mr. Meeseeks | Trust Rank level: Supreme Member
Format: Torrent | Site: RARBG
Video ID : 1 Format : AVC Format/Info : Advanced Video Codec Format profile : High@L4 Format settings : CABAC / 4 Ref Frames Format settings, CABAC : Yes Format settings, Reference frames : 4 frames Codec ID : V_MPEG4/ISO/AVC Duration : 1 h 25 min Bit rate mode : Variable Bit rate : 8 470 kb/s Maximum bit rate : 12.7 Mb/s Width : 1 920 pixels Height : 1 080 pixels Display aspect ratio : 16:9 Frame rate mode : Constant Frame rate : 23.976 (24000/1001) FPS Color space : YUV Chroma subsampling : 4:2:0 Bit depth : 8 bits Scan type : Progressive Bits/(Pixel*Frame) : 0.170 Stream size : 5.08 GiB (97%) Default : Yes Forced : No Color range : Limited Color primaries : BT.709 Transfer characteristics : BT.709 Matrix coefficients : BT.709 Audio ID : 2 Format : E-AC-3 Format/Info : Enhanced AC-3 Commercial name : Dolby Digital Plus Codec ID : A_EAC3 Duration : 1 h 25 min Bit rate mode : Constant Bit rate : 256 kb/s Channel(s) : 6 channels Channel layout : L R C LFE Ls Rs Sampling rate : 48.0 kHz Frame rate : 31.250 FPS (1536 SPF) Compression mode : Lossy Stream size : 157 MiB (3%) Title : English Language : English Service kind : Complete Main Default : Yes Forced : No Text #1 ID : 3 Format : UTF-8 Codec ID : S_TEXT/UTF8 Codec ID/Info : UTF-8 Plain Text Duration : 1 h 24 min Bit rate : 87 b/s Count of elements : 1261 Stream size : 54.3 KiB (0%) Language : English Default : Yes Forced : No

Videos Add media

Black is King: Trailer
Black is King: Trailer