Black Beauty

Black Beauty

Mr. MeeseeksMr. Meeseeks   November 27, 2020  
Add to list
Black Beauty

Movie info

Title
Confirmed and upcoming movie titles only! Search before adding to avoid dupes.
Black Beauty
Year
The year the movie is set to be released.
2020
Director
Ashley Avis
Genre
Pick one or multiple movie genres.
Digital release
Official digital release date on services such as iTunes, Amazon, Netflix. It's the first known release date, without any country restriction. So if it's out on iTunes Russia first, this would be the digital release date.
November 27, 2020
Description
Starring Mackenzie Foy, Kate Winslet, Claire Forlani, Iain Glen, Hakeem Kae-Kazim, Fern Deacon, Patrick Lyster, and Calam Lynch.
Where you watch

Where you watch Email alert

Yes, it is available and reported below. Use the alert button to get notified when higher quality versions are available.

Download and stream reports

Is there a Black Beauty torrent? Yes. Reports are available below.
When will Black Beauty be available on VOD? It's set for a November 27, 2020 release.

November 27, 2020
Black.Beauty.2020.1080p.DSNP.WEBRip.DDP5.1.Atmos.x264-NOGRP
Video and audio quality: 5/5 | Source: Official web stream

Submitted by: Slen | Trust Rank level: Professional
Format: Official stream | Site: RARBG
Video ID : 1 Format : AVC Format/Info : Advanced Video Codec Format profile : High@L4 Format settings : CABAC / 4 Ref Frames Format settings, CABAC : Yes Format settings, Reference frames : 4 frames Codec ID : V_MPEG4/ISO/AVC Duration : 1 h 48 min Bit rate mode : Variable Bit rate : 8 488 kb/s Maximum bit rate : 12.7 Mb/s Width : 1 920 pixels Height : 1 080 pixels Display aspect ratio : 16:9 Frame rate mode : Constant Frame rate : 23.976 (24000/1001) FPS Color space : YUV Chroma subsampling : 4:2:0 Bit depth : 8 bits Scan type : Progressive Bits/(Pixel*Frame) : 0.171 Stream size : 6.43 GiB (92%) Default : Yes Forced : No Color range : Limited Color primaries : BT.709 Transfer characteristics : BT.709 Matrix coefficients : BT.709 Audio ID : 2 Format : E-AC-3 JOC Format/Info : Enhanced AC-3 with Joint Object Coding Commercial name : Dolby Digital Plus with Dolby Atmos Codec ID : A_EAC3 Duration : 1 h 48 min Bit rate mode : Constant Bit rate : 768 kb/s Channel(s) : 6 channels Channel layout : L R C LFE Ls Rs Sampling rate : 48.0 kHz Frame rate : 31.250 FPS (1536 SPF) Compression mode : Lossy Stream size : 596 MiB (8%) Title : English Language : English Service kind : Complete Main Default : Yes Forced : No Complexity index : 16 Number of dynamic objects : 15 Bed channel count : 1 channel Bed channel configuration : LFE

Videos Add media

Black Beauty | Official Trailer | Disney+
Black Beauty | Official Trailer | Disney+