Black Bear

Black Bear

Hot
nihudobnihudob   February 16, 2020  
Add to list
Black Bear

Movie info

Title
Confirmed and upcoming movie titles only! Search before adding to avoid dupes.
Black Bear
Year
The year the movie is set to be released.
2020
Director
Lawrence Michael Levine
Genre
Pick one or multiple movie genres.
Digital release
Official digital release date on services such as iTunes, Amazon, Netflix. It's the first known release date, without any country restriction. So if it's out on iTunes Russia first, this would be the digital release date.
December 04, 2020
Description
Starring Aubrey Plaza, Sarah Gadon, and Christopher Abbott.
An uproarious deconstruction of modern culture, and indie filmmaking .
Where you watch

Where you watch Email alert

Yes, it is available and reported below. Use the alert button to get notified when higher quality versions are available.

Download and stream reports

Is there a Black Bear torrent? Yes. Reports are available below.
When will Black Bear be available on VOD? It's set for a December 04, 2020 release.

December 04, 2020
Black.Bear.2020.1080p.AMZN.WEBRip.DDP5.1.x264-NOGRP
Video and audio quality: 5/5 | Source: Official web stream

Submitted by: Slender | Trust Rank level: Senior Member
Format: Official stream | Site: RARBG
ID : 1 Format : AVC Format/Info : Advanced Video Codec Format profile : High@L4 Format settings : CABAC / 4 Ref Frames Format settings, CABAC : Yes Format settings, Reference frames : 4 frames Codec ID : V_MPEG4/ISO/AVC Duration : 1 h 45 min Bit rate mode : Constant Bit rate : 8 901 kb/s Nominal bit rate : 10 000 kb/s Width : 1 792 pixels Height : 1 080 pixels Display aspect ratio : 5:3 Frame rate mode : Constant Frame rate : 23.976 (24000/1001) FPS Color space : YUV Chroma subsampling : 4:2:0 Bit depth : 8 bits Scan type : Progressive Bits/(Pixel*Frame) : 0.192 Stream size : 6.58 GiB (93%) Default : Yes Forced : No Color range : Limited Color primaries : BT.709 Transfer characteristics : BT.709 Matrix coefficients : BT.709 Audio ID : 2 Format : E-AC-3 Format/Info : Enhanced AC-3 Commercial name : Dolby Digital Plus Codec ID : A_EAC3 Duration : 1 h 45 min Bit rate mode : Constant Bit rate : 640 kb/s Channel(s) : 6 channels Channel layout : L R C LFE Ls Rs Sampling rate : 48.0 kHz Frame rate : 31.250 FPS (1536 SPF) Compression mode : Lossy Stream size : 484 MiB (7%) Language : English Service kind : Complete Main Default : Yes Forced : No

Videos Add media

BLACK BEAR Official Trailer (2020) Aubrey Plaza, Drama Movie HD
BLACK BEAR Official Trailer (2020) Aubrey Plaza, D...