Birds of Passage

Birds of Passage

Hot
Mr. MeeseeksMr. Meeseeks   May 11, 2018  
Add to list
Birds of Passage

Movie info

TITLE
Confirmed and upcoming movie titles only! Search before adding to avoid dupes.
Birds of Passage
YEAR
The year the movie is set to be released.
2019
GENRE
Pick one or multiple movie genres.
CINEMA
First cinema release date in any country.
February 13, 2019
DESCRIPTION
A Spanish film about a Native American family in the 1970’s, and their rise and fall of prominence in the local drug trafficking network.

Starring Natalia Reyes, Jose Vicente, José Acosta, Carmina Martinez, Jhon Narváez, and Greider Meza.
WHERE YOU WATCH

Where you watch Email alert

The movie is online and reported below, Use the alert button to get notified when higher quality versions are available.

Reports

Is Birds of Passage available online? Yes. Reports of pirated torrents and streams are available below.
When will Birds of Passage be available on digital platforms like iTunes or Amazon? As of now, there's no release data announced. This includes iTunes, Amazon, Blu-Ray and DVD.

May 21, 2019
Birds.of.Passage.2018.SUBBED.1080p.BluRay.x264.DTS-MT
Video and audio quality: 5/5 | Source: BluRay

Submitted by: Mr. Meeseeks | Trust Rank level: Supreme Member
Format: Torrent | Site: RARBG
Video ID : 1 Format : AVC Format/Info : Advanced Video Codec Format profile : [email protected] Format settings : CABAC / 5 Ref Frames Format settings, CABAC : Yes Format settings, ReFrames : 5 frames Codec ID : V_MPEG4/ISO/AVC Duration : 2 h 5 min Bit rate : 10.7 Mb/s Width : 1 920 pixels Height : 816 pixels Display aspect ratio : 2.35:1 Frame rate mode : Constant Frame rate : 23.976 (24000/1001) FPS Color space : YUV Chroma subsampling : 4:2:0 Bit depth : 8 bits Scan type : Progressive Bits/(Pixel*Frame) : 0.286 Stream size : 9.40 GiB (88%) Language : Spanish Default : Yes Forced : No Audio ID : 2 Format : DTS Format/Info : Digital Theater Systems Codec ID : A_DTS Duration : 2 h 5 min Bit rate mode : Constant Bit rate : 1 509 kb/s Channel(s) : 6 channels Channel layout : C L R Ls Rs LFE Sampling rate : 48.0 kHz Frame rate : 93.750 FPS (512 SPF) Bit depth : 24 bits Compression mode : Lossy Stream size : 1.32 GiB (12%) Language : Spanish Default : Yes Forced : No Text #1 ID : 3 Format : UTF-8 Codec ID : S_TEXT/UTF8 Codec ID/Info : UTF-8 Plain Text Duration : 1 h 57 min Bit rate : 27 b/s Count of elements : 772 Stream size : 23.6 KiB (0%) Title : English-SRT Language : English Default : No Forced : No Text #2 ID : 4 Format : PGS Muxing mode : zlib Codec ID : S_HDMV/PGS Codec ID/Info : Picture based subtitle format used on BDs/HD-DVDs Duration : 2 h 3 min Bit rate : 9 018 b/s Count of elements : 610 Stream size : 7.98 MiB (0%) Title : English-PGS Language : English Default : No Forced : No

Videos Add media

Birds of Passage - Official Trailer
Birds of Passage - Official Trailer