Berlin Alexanderplatz

Berlin Alexanderplatz

Hot
Mr. MeeseeksMr. Meeseeks   February 07, 2020  
Add to list
Berlin Alexanderplatz

Movie info

Title
Confirmed and upcoming movie titles only! Search before adding to avoid dupes.
Berlin Alexanderplatz
Year
The year the movie is set to be released.
2020
Director
Burhan Qurbani
Genre
Pick one or multiple movie genres.
Cinema release
First cinema release date in any country.
April 16, 2020
Description
Starring Welket Bungué, Jella Haase, and Albrecht Schuch.
Where you watch

Where you watch Email alert

Yes, it is available and reported below. Use the alert button to get notified when higher quality versions are available.

Download and stream reports

Is there a Berlin Alexanderplatz torrent? Yes. Reports are available below.
When will Berlin Alexanderplatz be available on digital platforms like iTunes, Amazon or Apple+? As of now, there's no release date announced. This includes iTunes, Amazon, Blu-Ray and DVD.

November 26, 2020
Berlin.Alexanderplatz.2020.1080p.BluRay.x264-UNVEiL
Video and audio quality: 5/5 | Source: BluRay

Submitted by: Mr. Meeseeks | Trust Rank level: Supreme Member
Format: Torrent | Site: RARBG
Video ID : 1 Format : AVC Format/Info : Advanced Video Codec Format profile : High@L4.1 Format settings : CABAC / 5 Ref Frames Format settings, CABAC : Yes Format settings, Reference frames : 5 frames Codec ID : V_MPEG4/ISO/AVC Duration : 3 h 3 min Bit rate : 6 896 kb/s Width : 1 920 pixels Height : 804 pixels Display aspect ratio : 2.40:1 Frame rate mode : Constant Frame rate : 23.976 (24000/1001) FPS Color space : YUV Chroma subsampling : 4:2:0 Bit depth : 8 bits Scan type : Progressive Bits/(Pixel*Frame) : 0.186 Stream size : 8.83 GiB (78%) Writing library : x264 core 161 r3018 db0d417 Encoding settings : cabac=1 / ref=5 / deblock=1:-3:-3 / analyse=0x3:0x133 / me=umh / subme=9 / psy=1 / psy_rd=1.00:0.00 / mixed_ref=1 / me_range=16 / chroma_me=1 / trellis=2 / 8x8dct=1 / cqm=0 / deadzone=21,11 / fast_pskip=0 / chroma_qp_offset=-2 / threads=25 / lookahead_threads=2 / sliced_threads=0 / nr=0 / decimate=1 / interlaced=0 / bluray_compat=0 / constrained_intra=0 / bframes=3 / b_pyramid=2 / b_adapt=2 / b_bias=0 / direct=3 / weightb=1 / open_gop=0 / weightp=2 / keyint=250 / keyint_min=23 / scenecut=40 / intra_refresh=0 / rc_lookahead=60 / rc=crf / mbtree=1 / crf=17.0 / qcomp=0.60 / qpmin=0 / qpmax=69 / qpstep=4 / ip_ratio=1.40 / aq=1:1.00 Language : English Default : Yes Forced : No Audio ID : 2 Format : DTS XLL Format/Info : Digital Theater Systems Commercial name : DTS-HD Master Audio Codec ID : A_DTS Duration : 3 h 3 min Bit rate mode : Variable Bit rate : 1 872 kb/s Channel(s) : 6 channels Channel layout : C L R Ls Rs LFE Sampling rate : 48.0 kHz Frame rate : 93.750 FPS (512 SPF) Bit depth : 16 bits Compression mode : Lossless Stream size : 2.40 GiB (21%) Language : German Default : Yes Forced : No Text #1 ID : 3 Format : UTF-8 Codec ID : S_TEXT/UTF8 Codec ID/Info : UTF-8 Plain Text Duration : 2 h 56 min Bit rate : 34 b/s Count of elements : 1907 Stream size : 44.4 KiB (0%) Language : English Default : Yes Forced : No Text #2 ID : 4 Format : PGS Muxing mode : zlib Codec ID : S_HDMV/PGS Codec ID/Info : Picture based subtitle format used on BDs/HD-DVDs Duration : 2 h 56 min Bit rate : 25.3 kb/s Count of elements : 3815 Stream size : 31.8 MiB (0%) Language : English Default : No Forced : No Text #3 ID : 5 Format : PGS Muxing mode : zlib Codec ID : S_HDMV/PGS Codec ID/Info : Picture based subtitle format used on BDs/HD-DVDs Duration : 2 h 56 min Bit rate : 33.2 kb/s Count of elements : 4017 Stream size : 41.9 MiB (0%) Language : German Default : No Forced : No

Videos Add media

'Berlin Alexanderplatz' (2020) - first English trailer for Berlinale competition title
'Berlin Alexanderplatz' (2020) - first English tra...