Bergman Island

Bergman Island

Hot
JuancoJuanco   March 26, 2019  
Add to list
Bergman Island

Movie info

Title
Confirmed and upcoming movie titles only! Search before adding to avoid dupes.
Bergman Island
Year
The year the movie is set to be released.
2021
Director
Mia Hansen-Love
Genre
Pick one or multiple movie genres.
Cinema release
First cinema release date in any country.
July 14, 2021
Description
It revolves around a couple of American filmmakers who retire to the island during the summer to write scripts for their next films on a pilgrimage to the place that inspired Bergman. As summer and its scripts advance, the lines between reality and fiction begin to blur in the context of the wild landscape of the island.

Starring Mia Wasikowska, Vicky Krieps, Tim Roth, Anders Danielsen Lie, Joel Spira, and Clara Strauch.
Where you watch

Where you watch Email alert

Yes, it is available and reported below. Use the alert button to get notified when higher quality versions are available.

Download and stream reports

Is there a Bergman Island torrent? Yes. Reports are available below.
When will Bergman Island be available on digital platforms like iTunes, Amazon or Apple+? As of now, there's no release date announced. This includes iTunes, Amazon, Blu-Ray and DVD.

October 22, 2021
Bergman.Island.2021.1080p.AMZN.WEBRip.DDP5.1.x264-NOGRP
Video and audio quality: 5/5 | Source: Official web stream

Submitted by: Mr. Meeseeks | Trust Rank level: Supreme Member
Format: Torrent | Site: RARBG
Video ID : 1 Format : AVC Format/Info : Advanced Video Codec Format profile : High@L4 Format settings : CABAC / 4 Ref Frames Format settings, CABAC : Yes Format settings, Reference frames : 4 frames Codec ID : V_MPEG4/ISO/AVC Duration : 1 h 52 min Bit rate : 8 611 kb/s Width : 1 920 pixels Height : 800 pixels Display aspect ratio : 2.40:1 Frame rate mode : Constant Frame rate : 23.976 (24000/1001) FPS Color space : YUV Chroma subsampling : 4:2:0 Bit depth : 8 bits Scan type : Progressive Bits/(Pixel*Frame) : 0.234 Stream size : 6.79 GiB (91%) Default : Yes Forced : No Color range : Limited Color primaries : BT.709 Transfer characteristics : BT.709 Matrix coefficients : BT.709 Audio ID : 2 Format : E-AC-3 Format/Info : Enhanced AC-3 Commercial name : Dolby Digital Plus Codec ID : A_EAC3 Duration : 1 h 52 min Bit rate mode : Constant Bit rate : 640 kb/s Channel(s) : 6 channels Channel layout : L R C LFE Ls Rs Sampling rate : 48.0 kHz Frame rate : 31.250 FPS (1536 SPF) Compression mode : Lossy Stream size : 517 MiB (7%) Language : English Service kind : Complete Main Default : Yes Forced : No Text ID : 3 Format : UTF-8 Codec ID : S_TEXT/UTF8 Codec ID/Info : UTF-8 Plain Text Language : English Default : Yes Forced : No
October 09, 2021
Bergman.Island.2021.720p.HDCAM-C1NEM4
Video and audio quality: 1/5 | Source: Camera

Submitted by: Costa | Trust Rank level: Legend Member
Format: Torrent | Site: torrentgalaxy
Please be advised this upload has ads cut or watermarked into the video.