Benediction

Benediction

Mr. MeeseeksMr. Meeseeks   May 23, 2022  
Add to list
Benediction

Movie info

Title
Confirmed and upcoming movie titles only! Search before adding to avoid dupes.
Benediction
Year
The year the movie is set to be released.
2022
Director
Terence Davies
Genre
Pick one or multiple movie genres.
Cinema release
First cinema release date in any country.
May 20, 2022
Description
Starring Jack Lowden, Peter Capaldi, Simon Russell Beale, Jeremy Irvine, Calam Lynch, Tom Blyth, Kate Phillips, Geraldine James, Gemma Jones, and Ben Daniels.
Where you watch

Where you watch Email alert

Yes, it is available and reported below. Use the alert button to get notified when higher quality versions are available.

Download and stream reports

Is there a Benediction torrent? Yes. Reports are available below.
When will Benediction be available on digital platforms like iTunes, Amazon or Apple+? As of now, there's no release date announced. This includes iTunes, Amazon, Blu-Ray and DVD.

June 21, 2022
Benediction.2021.1080p.WEBRip.DD5.1.x264-NOGRP
Video and audio quality: 5/5 | Source: Official web stream

Submitted by: Mr. Meeseeks | Trust Rank level: Supreme Member
Format: Torrent | Site: RARBG
Video ID : 1 Format : AVC Format/Info : Advanced Video Codec Format profile : High@L4 Format settings : CABAC / 5 Ref Frames Format settings, CABAC : Yes Format settings, Reference frames : 5 frames Codec ID : V_MPEG4/ISO/AVC Duration : 2 h 17 min Bit rate : 6 702 kb/s Width : 1 916 pixels Height : 800 pixels Display aspect ratio : 2.40:1 Frame rate mode : Constant Frame rate : 24.000 FPS Color space : YUV Chroma subsampling : 4:2:0 Bit depth : 8 bits Scan type : Progressive Bits/(Pixel*Frame) : 0.182 Stream size : 6.42 GiB (95%) Default : Yes Forced : No Color range : Limited Color primaries : BT.709 Transfer characteristics : BT.709 Matrix coefficients : BT.709 Audio ID : 2 Format : AC-3 Format/Info : Audio Coding 3 Commercial name : Dolby Digital Codec ID : A_AC3 Duration : 2 h 17 min Bit rate mode : Constant Bit rate : 384 kb/s Channel(s) : 6 channels Channel layout : L R C LFE Ls Rs Sampling rate : 48.0 kHz Frame rate : 31.250 FPS (1536 SPF) Compression mode : Lossy Stream size : 377 MiB (5%) Title : British Language : English Service kind : Complete Main Default : Yes Forced : No Text #1 ID : 3 Format : UTF-8 Codec ID : S_TEXT/UTF8 Codec ID/Info : UTF-8 Plain Text Duration : 2 h 7 min Bit rate : 60 b/s Count of elements : 1755 Stream size : 55.9 KiB (0%) Language : English Default : No Forced : No
June 13, 2022
Benediction.2021.720p.HDCAM-C1NEM4
Video and audio quality: 1/5 | Source: Camera

Submitted by: Costa | Trust Rank level: Legend Member
Format: Torrent | Site: torrentgalaxy
Please be advised this upload has ads cut or watermarked into the video.

Videos Add media

Benediction | Official Trailer | In Theaters June 3
Benediction | Official Trailer | In Theaters June ...