Beauty

Beauty

Mr. MeeseeksMr. Meeseeks   June 16, 2022  
Add to list
Beauty

Movie info

Title
Confirmed and upcoming movie titles only! Search before adding to avoid dupes.
Beauty
Year
The year the movie is set to be released.
2022
Director
Andrew Dosunmu
Genre
Pick one or multiple movie genres.
Digital release
Official digital release date on services such as iTunes, Amazon, Netflix. It's the first known release date, without any country restriction. So if it's out on iTunes Russia first, this would be the digital release date.
June 29, 2022
Description
Starring Niecy Nash, Aleyse Shannon, Giancarlo Esposito, Gracie Marie Bradley, Micheal Ward, and Sharon Stone.
Where you watch

Where you watch Email alert

Yes, it is available and reported below. Use the alert button to get notified when higher quality versions are available.

Download and stream reports

Is there a Beauty torrent? Yes. Reports are available below.
When will Beauty be available on VOD? It's set for a June 29, 2022 release.

July 02, 2022
Beauty.2022.1080p.NF.WEB-DL.x265.10bit.HDR.DDP5.1-SMURF
Video and audio quality: 5/5 | Source: Official web stream

Submitted by: Mr. Meeseeks | Trust Rank level: Supreme Member
Format: Torrent | Site: RARBG
Video ID : 1 Format : HEVC Format/Info : High Efficiency Video Coding Format profile : Main 10@L4@Main HDR format : SMPTE ST 2086, HDR10 compatible Codec ID : V_MPEGH/ISO/HEVC Duration : 1 h 34 min Bit rate : 5 580 kb/s Width : 1 920 pixels Height : 1 080 pixels Display aspect ratio : 16:9 Frame rate mode : Constant Frame rate : 24.000 FPS Color space : YUV Chroma subsampling : 4:2:0 (Type 2) Bit depth : 10 bits Bits/(Pixel*Frame) : 0.112 Stream size : 3.70 GiB (90%) Default : Yes Forced : No Color range : Limited Color primaries : BT.2020 Transfer characteristics : PQ Matrix coefficients : BT.2020 non-constant Mastering display color primaries : Display P3 Mastering display luminance : min: 0.0001 cd/m2, max: 1000 cd/m2 Maximum Content Light Level : 756 cd/m2 Maximum Frame-Average Light Level : 97 cd/m2 Audio ID : 2 Format : E-AC-3 Format/Info : Enhanced AC-3 Commercial name : Dolby Digital Plus Codec ID : A_EAC3 Duration : 1 h 35 min Bit rate mode : Constant Bit rate : 640 kb/s Channel(s) : 6 channels Channel layout : L R C LFE Ls Rs Sampling rate : 48.0 kHz Frame rate : 31.250 FPS (1536 SPF) Compression mode : Lossy Stream size : 438 MiB (10%) Language : English Service kind : Complete Main Default : Yes Forced : No Text #1 ID : 3 Format : UTF-8 Codec ID : S_TEXT/UTF8 Codec ID/Info : UTF-8 Plain Text Duration : 1 h 25 min Bit rate : 42 b/s Count of elements : 942 Stream size : 26.8 KiB (0%) Language : English Default : No Forced : No

Videos Add media

BEAUTY | Official Trailer | Netflix
BEAUTY | Official Trailer | Netflix