Batman Ninja

Batman Ninja

Hot
CostaCosta   January 14, 2018  
News (0)
Add to list
Batman Ninja

Movie info

TITLE
Confirmed and upcoming movie titles only! Search before adding to avoid dupes.
YEAR
The year the movie is set to be released.
2018
GENRE
Pick one or multiple movie genres.
CINEMA
First cinema release date in any country.
December 13, 2018
DESCRIPTION
Batman finds himself somehow transported back to Japan’s earliest days, where he has to face a whole lot of his classic friends and foes, only this time they all received a stunning redesign by the legendary Afro Samurai creator Takashi Okazaki, most noticeable and epic of all of which is Batman's redesign, where he now dons some sick samurai gear!
Gotham's dark knight receives help from a multitude of sidekicks and allies such as Nightwing, Robin, Alfred Pennywise, Catwoman, Red Hood and more! Which is all the help he can get to face some of the most iconic Batman villains: Penguin, Poison Ivy, Two-Face, Harley Quinn, Deathstroke, Gorilla Grodd, and most importantly, The Joker!
Warner Bros. will release "Batman Ninja", initially in Japan, then worldwide sometime in 2018.
WHERE YOU WATCH

Where you watch Email alert

The movie is online and reported below, Use the alert button to get notified when higher quality versions are available.

Reports

April 26, 2018
Batman.Ninja.2018.1080p.BluRay.x264.DTS-MT
Video and audio quality: 5/5 | Source: BluRay

Submitted by: Mr. Meeseeks | Trust Rank level: Legend Member
Format: Torrent | Site: RARBG
Video ID : 1 Format : AVC Format/Info : Advanced Video Codec Format profile : [email protected] Format settings : CABAC / 5 Ref Frames Format settings, CABAC : Yes Format settings, ReFrames : 5 frames Codec ID : V_MPEG4/ISO/AVC Duration : 1 h 25 min Bit rate : 10.5 Mb/s Width : 1 920 pixels Height : 1 080 pixels Display aspect ratio : 16:9 Frame rate mode : Constant Frame rate : 23.976 (24000/1001) FPS Color space : YUV Chroma subsampling : 4:2:0 Bit depth : 8 bits Scan type : Progressive Bits/(Pixel*Frame) : 0.211 Stream size : 6.26 GiB (87%) Title : Batman.Ninja.2018.1080p.BluRay.x264.DTS-MT Writing library : x264 core 155 r2901 7d0ff22 Audio ID : 2 Format : DTS Format/Info : Digital Theater Systems Codec ID : A_DTS Duration : 1 h 25 min Bit rate mode : Constant Bit rate : 1 509 kb/s Channel(s) : 6 channels Channel positions : Front: L C R, Side: L R, LFE Sampling rate : 48.0 kHz Frame rate : 93.750 FPS (512 SPF) Bit depth : 24 bits Compression mode : Lossy Stream size : 920 MiB (13%) Title : Batman.Ninja.2018.1080p.BluRay.x264.DTS-MT Language : English Default : Yes Forced : No Text ID : 3 Format : UTF-8 Codec ID : S_TEXT/UTF8 Codec ID/Info : UTF-8 Plain Text Duration : 1 h 24 min Bit rate : 45 b/s Count of elements : 880 Stream size : 28.3 KiB (0%) Language : English Default : Yes Forced : No
April 24, 2018
Batman.Ninja.2018.HDRip.XviD.AC3-EVO
Video and audio quality: 5/5 | Source: Official web stream

Submitted by: Mr. Meeseeks | Trust Rank level: Legend Member
Format: Torrent | Site: TorrentingMe
SOURCE: iTunes ViDEO: 1609 Kbps -2 Passes RESOLUTiON: 720x400 RUNTiME: 1h 25m 43s SUBTiTLES: No. AUDiO: 384 Kbps AC3 5.1 LANGUAGE: ENGLiSH ENCODER: DdHD

Videos Add media

BATMAN NINJA - Japanese Trailer English Subs (12/01 release)
BATMAN NINJA - Japanese Trailer English Subs (12/0...
『ニンジャバットマン』 New York Comic Con公開映像【2018年劇場公開予定】
『ニンジャバットマン』 New York Comic C...

Movie News

There are no member news items for this movie.
To write a comment please register or