Backstabbing for Beginners

Backstabbing for Beginners

Hot
Mr. MeeseeksMr. Meeseeks   March 22, 2018  
News (0)
Add to list
Backstabbing for Beginners

Movie info

TITLE
Confirmed and upcoming movie titles only! Search before adding to avoid dupes.
YEAR
The year the movie is set to be released.
2018
DIRECTOR
GENRE
Pick one or multiple movie genres.
CINEMA
First cinema release date in any country.
January 18, 2018
DESCRIPTION
Theo James stars as Michael Soussan a young employee for the United Nations’ Oil-for-Food Programme who unintentionally uncovered a large corruption scandal, with connections that lead all the way to Saddam Hussein. Soussan would eventually resign and leak details of the case in a now infamous Wall Street Journal op-ed.

Adapted from Soussan’s book of the same name.
WHERE YOU WATCH

Where you watch Email alert

The movie is online and reported below, Use the alert button to get notified when higher quality versions are available.

Reports

April 19, 2018
Backstabbing.for.Beginners.2018.1080p.BluRay.x264.DTS-HD.MA.5.1-MT
Video and audio quality: 5/5 | Source: BluRay

Submitted by: Mr. Meeseeks | Trust Rank level: Legend Member
Format: Torrent | Site: RARBG
Video ID : 2 Format : AVC Format/Info : Advanced Video Codec Format profile : [email protected] Format settings : CABAC / 5 Ref Frames Format settings, CABAC : Yes Format settings, ReFrames : 5 frames Codec ID : V_MPEG4/ISO/AVC Duration : 1 h 48 min Bit rate : 12.1 Mb/s Width : 1 920 pixels Height : 804 pixels Display aspect ratio : 2.40:1 Frame rate mode : Constant Frame rate : 23.976 (24000/1001) FPS Color space : YUV Chroma subsampling : 4:2:0 Bit depth : 8 bits Scan type : Progressive Bits/(Pixel*Frame) : 0.328 Stream size : 9.19 GiB (77%) Default : Yes Forced : No Audio ID : 1 Format : DTS Format/Info : Digital Theater Systems Format profile : MA / Core Codec ID : A_DTS Duration : 1 h 48 min Bit rate mode : Variable / Constant Bit rate : 3 704 kb/s / 1 509 kb/s Channel(s) : 6 channels Channel positions : Front: L C R, Side: L R, LFE Sampling rate : 48.0 kHz Frame rate : 93.750 FPS (512 SPF) Bit depth : 24 bits Compression mode : Lossless / Lossy Stream size : 2.80 GiB (23%) Default : Yes Forced : No
April 18, 2018
Backstabbing.for.Beginners.2018.BDRip.XviD.AC3-EVO
Video and audio quality: 5/5 | Source: Official web stream

Submitted by: Mr. Meeseeks | Trust Rank level: Legend Member
Format: Torrent | Site: TorrentingMe
ViDEO: 1400 Kbps RESOLUTiON: 720x304 RUNTiME: 1h 48m 43s SUBTiTLES: English when needed AUDiO: 448 Kbps AC3 5.1 LANGUAGE: ENGLiSH ENCODER: DdHD

Videos Add media

BACKSTABBING FOR BEGINNERS - Official Trailer [HD]
BACKSTABBING FOR BEGINNERS - Official Trailer [HD]

Movie News

There are no member news items for this movie.
To write a comment please register or