Baby God

Baby God

Mr. MeeseeksMr. Meeseeks   November 26, 2020  
Add to list
Baby God

Movie info

Title
Confirmed and upcoming movie titles only! Search before adding to avoid dupes.
Baby God
Year
The year the movie is set to be released.
2020
Director
Genre
Pick one or multiple movie genres.
Digital release
Official digital release date on services such as iTunes, Amazon, Netflix. It's the first known release date, without any country restriction. So if it's out on iTunes Russia first, this would be the digital release date.
December 02, 2020
Description
An HBO Films documentary about Dr. Quincy Fortier, an infamous fertility specialist who inseminated his patients with his own DNA.
Where you watch

Where you watch Email alert

Yes, it is available and reported below. Use the alert button to get notified when higher quality versions are available.

Download and stream reports

Is there a Baby God torrent? Yes. Reports are available below.
When will Baby God be available on VOD? It's set for a December 02, 2020 release.

December 03, 2020
Baby.God.2020.1080p.WEB.h264-OPUS
Video and audio quality: 5/5 | Source: Official web stream

Submitted by: Mr. Meeseeks | Trust Rank level: Supreme Member
Format: Torrent | Site: RARBG
Video ID : 1 Format : AVC Format/Info : Advanced Video Codec Format profile : High@L4 Format settings : CABAC / 4 Ref Frames Format settings, CABAC : Yes Format settings, Reference frames : 4 frames Codec ID : V_MPEG4/ISO/AVC Duration : 1 h 17 min Bit rate mode : Variable Bit rate : 8 228 kb/s Maximum bit rate : 12.4 Mb/s Width : 1 920 pixels Height : 816 pixels Display aspect ratio : 2.35:1 Frame rate mode : Constant Frame rate : 23.976 (24000/1001) FPS Color space : YUV Chroma subsampling : 4:2:0 Bit depth : 8 bits Scan type : Progressive Bits/(Pixel*Frame) : 0.219 Stream size : 4.47 GiB (96%) Default : Yes Forced : No Color range : Limited Color primaries : BT.709 Transfer characteristics : BT.709 Matrix coefficients : BT.709 Audio ID : 2 Format : AC-3 Format/Info : Audio Coding 3 Commercial name : Dolby Digital Codec ID : A_AC3 Duration : 1 h 17 min Bit rate mode : Constant Bit rate : 384 kb/s Channel(s) : 6 channels Channel layout : L R C LFE Ls Rs Sampling rate : 48.0 kHz Frame rate : 31.250 FPS (1536 SPF) Compression mode : Lossy Stream size : 213 MiB (4%) Title : English Language : English Service kind : Complete Main Default : Yes Forced : No Text #1 ID : 3 Format : UTF-8 Codec ID : S_TEXT/UTF8 Codec ID/Info : UTF-8 Plain Text Duration : 1 h 17 min Bit rate : 76 b/s Count of elements : 1114 Stream size : 43.4 KiB (0%) Title : English (SDH) Language : English Default : No Forced : No Text #2 ID : 4 Format : UTF-8 Codec ID : S_TEXT/UTF8 Codec ID/Info : UTF-8 Plain Text Duration : 1 h 17 min Bit rate : 69 b/s Count of elements : 1065 Stream size : 39.4 KiB (0%) Title : Spanish (Latin America) Language : Spanish Default : No Forced : No

Videos Add media

Baby God (2020): Official Trailer | HBO
Baby God (2020): Official Trailer | HBO