Ashfall

Ashfall

Hot
Mr. MeeseeksMr. Meeseeks   May 20, 2020  
Add to list
Ashfall

Movie info

Title
Confirmed and upcoming movie titles only! Search before adding to avoid dupes.
Ashfall
Year
The year the movie is set to be released.
2019
Director
Byung-seo Kim & Hae-jun Lee
Genre
Pick one or multiple movie genres.
Cinema release
First cinema release date in any country.
December 19, 2019
Description
Starring Lee Byung-hun, Ha Jung-woo, Ma Dong-seok, Bae Suzy, and Jeon Hye-jin.
Where you watch

Where you watch Email alert

Yes, it is available and reported below. Use the alert button to get notified when higher quality versions are available.

Download and stream reports

Is there a Ashfall torrent? Yes. Reports are available below.
When will Ashfall be available on digital platforms like iTunes, Amazon or Apple+? As of now, there's no release date announced. This includes iTunes, Amazon, Blu-Ray and DVD.

May 21, 2020
Ashfall.2019.KOREAN.1080p.BluRay.x264.DTS-MT
Video and audio quality: 5/5 | Source: BluRay

Submitted by: Mr. Meeseeks | Trust Rank level: Supreme Member
Format: Torrent | Site: RARBG
Video ID : 1 Format : AVC Format/Info : Advanced Video Codec Format profile : High@L4.1 Format settings : CABAC / 5 Ref Frames Format settings, CABAC : Yes Format settings, Reference frames : 5 frames Codec ID : V_MPEG4/ISO/AVC Duration : 2 h 8 min Bit rate : 19.4 Mb/s Width : 1 920 pixels Height : 804 pixels Display aspect ratio : 2.40:1 Frame rate mode : Constant Frame rate : 23.976 (24000/1001) FPS Color space : YUV Chroma subsampling : 4:2:0 Bit depth : 8 bits Scan type : Progressive Bits/(Pixel*Frame) : 0.524 Stream size : 17.4 GiB (93%) Writing library : x264 core 157 r2938 2b00a84 TnP@MTeam Mod Encoding settings : cabac=1 / ref=5 / deblock=1:-3:-3 / analyse=0x3:0x133 / me=umh / subme=10 / psy=1 / psy_rd=1.05:0.00 / mixed_ref=1 / me_range=32 / chroma_me=1 / trellis=2 / 8x8dct=1 / cqm=0 / deadzone=21,11 / fast_pskip=0 / chroma_qp_offset=-2 / threads=12 / lookahead_threads=2 / sliced_threads=0 / nr=0 / decimate=0 / interlaced=0 / bluray_compat=0 / constrained_intra=0 / bframes=8 / b_pyramid=2 / b_adapt=2 / b_bias=0 / direct=3 / weightb=1 / open_gop=0 / weightp=2 / keyint=250 / keyint_min=24 / scenecut=40 / intra_refresh=0 / rc_lookahead=250 / rc=crf / mbtree=0 / crf=16.8 / qcomp=0.60 / qpmin=0 / qpmax=69 / qpstep=4 / vbv_maxrate=62500 / vbv_bufsize=78125 / crf_max=0.0 / nal_hrd=none / filler=0 / ip_ratio=1.30 / pb_ratio=1.20 / aq=3:0.80 Language : Korean Default : Yes Forced : No Color range : Limited Color primaries : BT.709 Matrix coefficients : BT.709 Audio ID : 2 Format : DTS Format/Info : Digital Theater Systems Codec ID : A_DTS Duration : 2 h 8 min Bit rate mode : Constant Bit rate : 1 509 kb/s Channel(s) : 6 channels Channel layout : C L R Ls Rs LFE Sampling rate : 48.0 kHz Frame rate : 93.750 FPS (512 SPF) Bit depth : 16 bits Compression mode : Lossy Stream size : 1.35 GiB (7%) Language : Korean Default : Yes Forced : No Text ID : 3 Format : UTF-8 Codec ID : S_TEXT/UTF8 Codec ID/Info : UTF-8 Plain Text Duration : 2 h 3 min Bit rate : 45 b/s Count of elements : 1478 Stream size : 41.4 KiB (0%) Language : English Default : Yes Forced : No

Videos Add media

ASHFALL Official Int'l Main Trailer
ASHFALL Official Int'l Main Trailer