Arkansas

Arkansas

Hot
Mr. MeeseeksMr. Meeseeks   February 28, 2020  
Add to list
Arkansas

Movie info

Title
Confirmed and upcoming movie titles only! Search before adding to avoid dupes.
Arkansas
Year
The year the movie is set to be released.
2020
Director
Clark Duke
Genre
Pick one or multiple movie genres.
Digital release
Official digital release date on services such as iTunes, Amazon, Netflix. It's the first known release date, without any country restriction. So if it's out on iTunes Russia first, this would be the digital release date.
May 01, 2020
Description
Starring Liam Hemsworth, Clark Duke, Michael Kenneth Williams, Vivica A. Fox, Eden Brolin, Chandler Duke, John Malkovich, Vince Vaughn, Jeff Chase, and Brad William Henke.
Where you watch

Where you watch Email alert

Yes, it is available and reported below. Use the alert button to get notified when higher quality versions are available.

Download and stream reports

Is there a Arkansas torrent? Yes. Reports are available below.
When will Arkansas be available on VOD? It's set for a May 01, 2020 release.

April 25, 2020
Arkansas.2020.1080p.BluRay.x264-YOL0W
Video and audio quality: 5/5 | Source: BluRay

Submitted by: Mr. Meeseeks | Trust Rank level: Supreme Member
Format: Torrent | Site: RARBG
Video ID : 1 Format : AVC Format/Info : Advanced Video Codec Format profile : High@L4.1 Format settings : CABAC / 5 Ref Frames Format settings, CABAC : Yes Format settings, Reference frames : 5 frames Codec ID : V_MPEG4/ISO/AVC Duration : 1 h 56 min Bit rate : 14.7 Mb/s Width : 1 920 pixels Height : 800 pixels Display aspect ratio : 2.40:1 Frame rate mode : Constant Frame rate : 23.976 (24000/1001) FPS Color space : YUV Chroma subsampling : 4:2:0 Bit depth : 8 bits Scan type : Progressive Bits/(Pixel*Frame) : 0.398 Stream size : 12.0 GiB (79%) Writing library : x264 core 160 r3000 33f9e14 Encoding settings : cabac=1 / ref=5 / deblock=1:-3:-3 / analyse=0x3:0x133 / me=umh / subme=9 / psy=1 / psy_rd=1.00:0.00 / mixed_ref=1 / me_range=16 / chroma_me=1 / trellis=2 / 8x8dct=1 / cqm=0 / deadzone=21,11 / fast_pskip=0 / chroma_qp_offset=-2 / threads=16 / lookahead_threads=1 / sliced_threads=0 / nr=0 / decimate=0 / interlaced=0 / bluray_compat=0 / constrained_intra=0 / bframes=3 / b_pyramid=2 / b_adapt=2 / b_bias=0 / direct=3 / weightb=1 / open_gop=0 / weightp=2 / keyint=250 / keyint_min=23 / scenecut=40 / intra_refresh=0 / rc=crf / mbtree=0 / crf=16.7 / qcomp=0.60 / qpmin=0 / qpmax=69 / qpstep=4 / ip_ratio=1.40 / pb_ratio=1.30 / aq=3:0.80 Language : English Default : Yes Forced : No Color range : Limited Matrix coefficients : BT.709 Audio #1 ID : 2 Format : DTS XLL Format/Info : Digital Theater Systems Commercial name : DTS-HD Master Audio Codec ID : A_DTS Duration : 1 h 56 min Bit rate mode : Variable Bit rate : 3 778 kb/s Channel(s) : 6 channels Channel layout : C L R Ls Rs LFE Sampling rate : 48.0 kHz Frame rate : 93.750 FPS (512 SPF) Bit depth : 24 bits Compression mode : Lossless Stream size : 3.09 GiB (20%) Title : English Language : English Default : Yes Forced : No Audio #2 ID : 3 Format : AAC LC Format/Info : Advanced Audio Codec Low Complexity Codec ID : A_AAC-2 Duration : 1 h 56 min Bit rate : 103 kb/s Channel(s) : 2 channels Channel layout : L R Sampling rate : 48.0 kHz Frame rate : 46.875 FPS (1024 SPF) Compression mode : Lossy Delay relative to video : 9 ms Stream size : 86.2 MiB (1%) Title : Commentary With Writer/Director Clark Duke Language : English Default : No Forced : No Text #1 ID : 4 Format : PGS Muxing mode : zlib Codec ID : S_HDMV/PGS Codec ID/Info : Picture based subtitle format used on BDs/HD-DVDs Duration : 1 h 53 min Bit rate : 43.6 kb/s Count of elements : 3482 Stream size : 35.4 MiB (0%) Language : English Default : No Forced : No Text #2 ID : 5 Format : PGS Muxing mode : zlib Codec ID : S_HDMV/PGS Codec ID/Info : Picture based subtitle format used on BDs/HD-DVDs Duration : 1 h 55 min Bit rate : 35.4 kb/s Count of elements : 3164 Stream size : 29.3 MiB (0%) Language : Spanish Default : No Forced : No

Videos Add media

Arkansas Official Trailer
Arkansas Official Trailer