Apocalypse Rising

Apocalypse Rising

#2 Fool#2 Fool   May 25, 2018  
News (0)
Add to list
Apocalypse Rising

Movie info

TITLE
Confirmed and upcoming movie titles only! Search before adding to avoid dupes.
YEAR
The year the movie is set to be released.
2018
GENRE
Pick one or multiple movie genres.
CINEMA
First cinema release date in any country.
June 12, 2018
DESCRIPTION
Richard Lowry’s newest film about space zombies, “Apocalypse Rising”, stars Shane Samples, Hunter Parker, Johanna Rae, Dennis Marin, Justin Lebrun, Victoria Steadman, Shiah Luna, David Namminga, James Frey, and Kelly Brown.
WHERE YOU WATCH

Where you watch Email alert

The movie is online and reported below, Use the alert button to get notified when higher quality versions are available.

Reports

June 17, 2018
Apocalypse Rising 2018 1080p BluRay x264 DTS [MW]
Video and audio quality: 5/5 | Source: BluRay

Submitted by: Mr. Meeseeks | Trust Rank level: Legend Member
Format: Torrent | Site: 1337x
General Format : Matroska Format version : Version 4 / Version 2 File size : 2.01 GiB Duration : 1 h 23 min Overall bit rate : 3 464 kb/s Video ID : 1 Format : AVC Format/Info : Advanced Video Codec Format profile : [email protected] Format settings : CABAC / 4 Ref Frames Format settings, CABAC : Yes Format settings, RefFrames : 4 frames Codec ID : V_MPEG4/ISO/AVC Duration : 1 h 23 min Bit rate : 2 000 kb/s Width : 1 920 pixels Height : 800 pixels Display aspect ratio : 2.40:1 Frame rate mode : Constant Frame rate : 23.976 (24000/1001) FPS Color space : YUV Chroma subsampling : 4:2:0 Bit depth : 8 bits Scan type : Progressive Bits/(Pixel*Frame) : 0.054 Stream size : 1.14 GiB (56%) Writing library : x264 core 155 r2901 7d0ff22 Default : Yes Forced : No Audio ID : 2 Format : DTS Format/Info : Digital Theater Systems Codec ID : A_DTS Duration : 1 h 23 min Bit rate mode : Constant Bit rate : 1 509 kb/s Channel(s) : 2 channels Channel positions : Front: L R Sampling rate : 48.0 kHz Frame rate : 93.750 FPS (512 SPF) Bit depth : 24 bits Compression mode : Lossy Stream size : 899 MiB (44%) Language : English Default : Yes Forced : No
June 11, 2018
Apocalypse Rising.2018.BDRip.XviD.AC3-EVO
Video and audio quality: 5/5 | Source: Official web stream

Submitted by: Mr. Meeseeks | Trust Rank level: Legend Member
Format: Torrent | Site: 1337x
MEDIAINFO Container = AVI (avi) Duration = 01:23:16.366 Filesize = 1 GiB ViDEO Codec info = MPEG-4 Visual Advanced [email protected] | XVID Resolution = 720x304 Display AR = 2.368 | 2.35:1 Bitrate = 1 861 kb/s Framerate = 23.976 Color space = YUV Chroma subsampling = 4:2:0 Encoder = XviD0066 AUDiO Codec info = AC-3 | 2000 Channels = 6 Bitrate = CBR 448 kb/s Samplerate = 48.0 kHz Language = English

Videos Add media

Apocalypse Rising (2018) | Official Trailer
Apocalypse Rising (2018) | Official Trailer

Movie News

There are no member news items for this movie.
To write a comment please register or