Ankle Biters

Ankle Biters

Mr. MeeseeksMr. Meeseeks   November 09, 2021  
Add to list
Ankle Biters

Movie info

Title
Confirmed and upcoming movie titles only! Search before adding to avoid dupes.
Ankle Biters
Year
The year the movie is set to be released.
2021
Director
Bennet De Brabandere
Genre
Pick one or multiple movie genres.
Digital release
Official digital release date on services such as iTunes, Amazon, Netflix. It's the first known release date, without any country restriction. So if it's out on iTunes Russia first, this would be the digital release date.
November 16, 2021
Description
Starring Zion Forrest Lee, Marianthi Evans, Lily Gail Reid, Violet Reid, Rosalee Reid, and Dahlia Reid.
Where you watch

Where you watch Email alert

Yes, it is available and reported below. Use the alert button to get notified when higher quality versions are available.

Download and stream reports

Is there a Ankle Biters torrent? Yes. Reports are available below.
When will Ankle Biters be available on VOD? It's set for a November 16, 2021 release.

November 16, 2021
Cherrypicker.2021.1080p.WEBRip.DD5.1.x264-NOGRP
Video and audio quality: 5/5 | Source: Official web stream

Submitted by: Mr. Meeseeks | Trust Rank level: Supreme Member
Format: Torrent | Site: RARBG
Video ID : 1 Format : AVC Format/Info : Advanced Video Codec Format profile : High@L4 Format settings : CABAC / 4 Ref Frames Format settings, CABAC : Yes Format settings, Reference frames : 4 frames Codec ID : V_MPEG4/ISO/AVC Duration : 1 h 30 min Bit rate : 6 528 kb/s Width : 1 916 pixels Height : 956 pixels Display aspect ratio : 2.004 Frame rate mode : Constant Frame rate : 23.976 (24000/1001) FPS Color space : YUV Chroma subsampling : 4:2:0 Bit depth : 8 bits Scan type : Progressive Bits/(Pixel*Frame) : 0.149 Stream size : 4.13 GiB (94%) Language : English Default : Yes Forced : No Color range : Limited Color primaries : BT.709 Transfer characteristics : BT.709 Matrix coefficients : BT.709 Audio ID : 2 Format : AC-3 Format/Info : Audio Coding 3 Commercial name : Dolby Digital Codec ID : A_AC3 Duration : 1 h 30 min Bit rate mode : Constant Bit rate : 384 kb/s Channel(s) : 6 channels Channel layout : L R C LFE Ls Rs Sampling rate : 48.0 kHz Frame rate : 31.250 FPS (1536 SPF) Compression mode : Lossy Stream size : 249 MiB (6%) Title : English Language : English Service kind : Complete Main Default : Yes Forced : No Text ID : 3 Format : UTF-8 Codec ID : S_TEXT/UTF8 Codec ID/Info : UTF-8 Plain Text Duration : 1 h 25 min Bit rate : 44 b/s Count of elements : 1335 Stream size : 27.8 KiB (0%) Language : English Default : Yes Forced : No

Videos Add media

Ankle Biters - Official Trailer | Horror, Comedy
Ankle Biters - Official Trailer | Horror, Comedy