André The Giant

André The Giant

Hot
Mr. MeeseeksMr. Meeseeks   January 27, 2018  
Add to list
André The Giant

Movie info

TITLE
Confirmed and upcoming movie titles only! Search before adding to avoid dupes.
André The Giant
YEAR
The year the movie is set to be released.
2018
DIRECTOR
GENRE
Pick one or multiple movie genres.
CINEMA
First cinema release date in any country.
April 10, 2018
DESCRIPTION
Emmy award-winning producer Jason Hehir takes the helm for the new documentary from HBO Films, centered on the biggest attraction in professional wrestling history. Standing at seven feet, four inches tall, André Roussimoff wrestled around the world for twenty-nine years before dying at the young age of forty-six due to congestive heart failure. While growing up in France, he displayed symptoms of gigantism very early in his life (one telling point was being inable to fit on his school bus, seriously). The crazy world of spandex would welcome him when he was only nineteen, but would very soon skyrocket in popularity. Thus, Andre The Giant, “The Eighth Wonder of the World”, had been born, and would soon be one of the very first sports entertainers to crossover into film with his role in the hit film “The Princess Bride”.
WHERE YOU WATCH

Where you watch Email alert

The movie is online and reported below, Use the alert button to get notified when higher quality versions are available.

Reports

Is André The Giant available online? Yes. Reports of pirated torrents and streams are available below.
When will André The Giant be available on digital platforms like iTunes or Amazon? As of now, there's no release data announced. This includes iTunes, Amazon, Blu-Ray and DVD.

July 09, 2019
Andre.The.Giant.2018.DVDRip.x264-PFa
Video and audio quality: 5/5 | Source: DVD

Submitted by: Mr. Meeseeks | Trust Rank level: Supreme Member
Format: Torrent | Site: RARBG
Video ID : 1 Format : AVC Format/Info : Advanced Video Codec Format profile : [email protected] Format settings : CABAC / 8 Ref Frames Format settings, CABAC : Yes Format settings, ReFrames : 8 frames Codec ID : V_MPEG4/ISO/AVC Duration : 1 h 24 min Bit rate : 1 193 kb/s Width : 720 pixels Height : 406 pixels Display aspect ratio : 16:9 Frame rate mode : Constant Frame rate : 23.976 (24000/1001) FPS Color space : YUV Chroma subsampling : 4:2:0 Bit depth : 8 bits Scan type : Progressive Bits/(Pixel*Frame) : 0.170 Stream size : 725 MiB (91%) Writing library : x264 core 157 r2969 d4099dd Encoding settings : cabac=1 / ref=8 / deblock=1:0:0 / analyse=0x3:0x133 / me=umh / subme=9 / psy=1 / psy_rd=1.00:0.00 / mixed_ref=1 / me_range=16 / chroma_me=1 / trellis=2 / 8x8dct=1 / cqm=0 / deadzone=21,11 / fast_pskip=1 / chroma_qp_offset=-2 / threads=12 / lookahead_threads=1 / sliced_threads=0 / nr=0 / decimate=1 / interlaced=0 / bluray_compat=0 / constrained_intra=0 / bframes=3 / b_pyramid=2 / b_adapt=2 / b_bias=0 / direct=3 / weightb=1 / open_gop=0 / weightp=2 / keyint=250 / keyint_min=23 / scenecut=40 / intra_refresh=0 / rc_lookahead=60 / rc=crf / mbtree=1 / crf=19.0 / qcomp=0.60 / qpmin=0 / qpmax=69 / qpstep=4 / ip_ratio=1.40 / aq=1:1.00 Language : English Default : Yes Forced : No Audio ID : 2 Format : AAC LC Format/Info : Advanced Audio Codec Low Complexity Codec ID : A_AAC-2 Duration : 1 h 24 min Bit rate : 115 kb/s Channel(s) : 2 channels Channel layout : L R Sampling rate : 48.0 kHz Frame rate : 46.875 FPS (1024 SPF) Compression mode : Lossy Delay relative to video : 9 ms Stream size : 69.7 MiB (9%) Default : Yes Forced : No
April 11, 2018
Andre.the.Giant.2018.1080p.AMZN.WEB-DL.DDP2.0.H.264-monkee
Video and audio quality: 5/5 | Source: Official web stream

Submitted by: Mr. Meeseeks | Trust Rank level: Supreme Member
Format: Torrent | Site: 1337x
[Video Bitrate]:.............: 9968kb/s [Duration]:.............: 1 h 24 min [Video Codec]:.............: AVC [Resolution]:.............: 1920x1080 px [Aspect Ratio]:.............: 16:9 [Audio Codec]:.............: E-AC-3 [Audio Bitrate]:.............: 224kb/s [Audio Channels]:.............: 2.0ch [Audio Language]:.............: English

Videos Add media

Andre The Giant Official Trailer (2018) | HBO
Andre The Giant Official Trailer (2018) | HBO