An American Pickle

An American Pickle

Mr. MeeseeksMr. Meeseeks   May 16, 2020  
Add to list
An American Pickle

Movie info

Title
Confirmed and upcoming movie titles only! Search before adding to avoid dupes.
An American Pickle
Year
The year the movie is set to be released.
2020
Genre
Pick one or multiple movie genres.
Digital release
Official digital release date on services such as iTunes, Amazon, Netflix. It's the first known release date, without any country restriction. So if it's out on iTunes Russia first, this would be the digital release date.
August 06, 2020
Description
Based on the short story, "Sell Out" by Simon Rich, about a man from the early 1900's who falls into a vat of pickles and brines for 100 years. Having unaged, he starts a new life in the present, forging a friendship with his great nephew.

Simon Rich also wrote this screenplay, while Brandon Trost will direct the film. Starring Seth Rogen in both leads, alongside Maya Erskine, Sarah Snook, Eliot Glazer, Jorma Taccone, Kalen Allen, Molly Evensen, Kevin O'Rourke, and Joanna Adler.

The theatrical release of this film has been cancelled due to COVID-19, and it will now premiere as an exclusive for the new streaming service 'HBO MAX'.
Where you watch

Where you watch Email alert

Yes, it is available and reported below. Use the alert button to get notified when higher quality versions are available.

Download and stream reports

Can I download or stream An American Pickle? Yes. Reports of pirated torrents and streams are available below.
When will An American Pickle be available on digital platforms like iTunes or Amazon? It's set for a August 06, 2020 release. This likely includes iTunes and Amazon unless it is an exclusive Netflix, or similar, release. Physical versions on Blu-Ray or DVD will likely follow.

August 06, 2020
An.American.Pickle.2020.1080p.WEB.H264-SECRECY
Video and audio quality: 5/5 | Source: Official web stream

Submitted by: Mr. Meeseeks | Trust Rank level: Supreme Member
Format: Torrent | Site: RARBG
Video ID : 1 Format : AVC Format/Info : Advanced Video Codec Format profile : High@L4 Format settings : CABAC / 4 Ref Frames Format settings, CABAC : Yes Format settings, Reference frames : 4 frames Codec ID : V_MPEG4/ISO/AVC Duration : 1 h 28 min Bit rate mode : Variable Bit rate : 8 222 kb/s Maximum bit rate : 12.4 Mb/s Width : 1 920 pixels Height : 1 080 pixels Display aspect ratio : 16:9 Frame rate mode : Constant Frame rate : 23.976 (24000/1001) FPS Color space : YUV Chroma subsampling : 4:2:0 Bit depth : 8 bits Scan type : Progressive Bits/(Pixel*Frame) : 0.165 Stream size : 5.08 GiB (96%) Default : Yes Forced : No Audio ID : 2 Format : AC-3 Format/Info : Audio Coding 3 Commercial name : Dolby Digital Codec ID : A_AC3 Duration : 1 h 28 min Bit rate mode : Constant Bit rate : 384 kb/s Channel(s) : 6 channels Channel layout : L R C LFE Ls Rs Sampling rate : 48.0 kHz Frame rate : 31.250 FPS (1536 SPF) Bit depth : 16 bits Compression mode : Lossy Stream size : 243 MiB (4%) Title : English Language : English Service kind : Complete Main Default : No Forced : No

Videos Add media

An American Pickle | Official Trailer | HBO Max
An American Pickle | Official Trailer | HBO Max