American Made

American Made

Hot
MavoyMavoy   August 21, 2017  
News (0)
Add to list
American Made
American Made 2017 CAM XViD-26k

Movie info

TITLE
Confirmed and upcoming movie titles only! Search before adding to avoid dupes.
YEAR
The year the movie is set to be released.
2017
GENRE
Pick one or multiple movie genres.
CINEMA
First cinema release date in any country.
September 29, 2017
DESCRIPTION
A new film by Doug Liman (The Bourne Identity, Jumper). Pilot Barry Seal (Tom Cruise) is hired by CIA to fight with a communist threat in Central America. Seal gets involved with the Medellin drug cartel.
WHERE YOU WATCH

Where you watch Email alert

The movie is online and reported below, Use the alert button to get notified when higher quality versions are available.

Reports

April 07, 2018
American.Made.2017.1080p.BluRay.REMUX.AVC.DTS-X.7.1-FGT
Video and audio quality: 5/5 | Source: BluRay

Submitted by: Mr. Meeseeks | Trust Rank level: Legend Member
Format: Torrent | Site: RARBG
View all Movies XXX TV Shows Games Music Software Non XXX Trailers Catalog Box Office New index American.Made.2017.1080p.BluRay.REMUX.AVC.DTS-X.7.1-FGT Torrent: American.Made.2017.1080p.BluRay.REMUX.AVC.DTS-X.7.1-FGT VPN: GET VPN Downloading torrents is illegal in the United States. Use a VPN to make yourself hidden while downloading torrents. By using a VPN , your ISP and Government Agencies will not be able to spy on you, neither would they be able to track your online activity! Poster: American.Made.2017.1080p.BluRay.REMUX.AVC.DTS-X.7.1-FGT Subsbeta Others: Quality Res Sound Codec Name S. L. Size BRRip 1080 DTS-X x264 American.Made.2017.1080p.BluRay.x264.DTS-X.7.1-SWTYBLZ 6 0 14.41 GB BRRip 2160 DTS-X x265 American.Made.2017.2160p.BluRay.x265.10bit.HDR.DTS-X.7.1-IAMABLE 8 8 16.97 GB BRRip 2160 DTS-X x265 American.Made.2017.2160p.BluRay.x265.10bit.SDR.DTS-X.7.1-SWTYBLZ 3 2 35.98 GB BRRip 2160 DTS-X x264 American.Made.2017.2160p.BluRay.x264.8bit.SDR.DTS-X.7.1-SWTYBLZ 2 3 42.41 GB BRRip 2160 DTS-X HEVC American.Made.2017.2160p.BluRay.REMUX.HEVC.DTS-X.7.1-FGT 3 15 57.28 GB BRRip 2160 DTS-X HEVC American.Made.2017.2160p.BluRay.HEVC.DTS-X.7.1-COASTER 0 4 61.02 GB BRRip 1080 DTS-X x264 American.Made.2017.INTERNAL.1080p.BluRay.X264-DEFLATE 2 4 17.92 GB BRRip 1080 DTS-X x264 American.Made.2017.1080p.BluRay.x264.DTS-X.7.1-FGT 33 1 13.16 GB BRRip 720 DTS-X AVC American.Made.2017.1080p.BluRay.AVC.DTS-X.7.1-FGT 1 1 39.17 GB BRRip 1080 AAC x264 American.Made.2017.1080p.BluRay.H264.AAC-RARBG 124 24 2.20 GB Browse mode Description: [-] Hide MediaInfo Video ID : 1 Format : AVC Format/Info : Advanced Video Codec Format profile : [email protected] Format settings : CABAC / 4 Ref Frames Format settings, CABAC : Yes Format settings, ReFrames : 4 frames Format settings, GOP : M=3, N=12 Codec ID : V_MPEG4/ISO/AVC Duration : 1 h 54 min Bit rate mode : Variable Maximum bit rate : 27.5 Mb/s Width : 1 920 pixels Height : 1 080 pixels Display aspect ratio : 16:9 Frame rate mode : Constant Frame rate : 23.976 (24000/1001) FPS Color space : YUV Chroma subsampling : 4:2:0 Bit depth : 8 bits Scan type : Progressive Title : American.Made.2017.1080p.BluRay.REMUX.AVC.DTS-X.7.1-FGT Language : English Default : No Forced : No Audio #1 ID : 2 Format : DTS Format/Info : Digital Theater Systems Format profile : X / MA / Core Codec ID : A_DTS Bit rate mode : Variable / Variable / Constant Bit rate : Unknown / Unknown / 1 509 kb/s Channel(s) : Object Based / 8 channels / 6 channels Channel positions : Object Based / Front: L C R, Side: L R, Back: L R, LFE / Front: L C R, Side: L R, LFE Sampling rate : / 48.0 kHz / 48.0 kHz Frame rate : 93.750 FPS (512 SPF) Bit depth : / 24 bits / 24 bits Compression mode : / Lossless / Lossy Title : American.Made.2017.1080p.BluRay.REMUX.AVC.DTS-X.7.1-FGT Language : English Default : Yes Forced : No Audio #2 ID : 3 Format : DTS Format/Info : Digital Theater Systems Codec ID : A_DTS Duration : 1 h 54 min Bit rate mode : Constant Bit rate : 1 509 kb/s Channel(s) : 6 channels Channel positions : Front: L C R, Side: L R, LFE Sampling rate : 48.0 kHz Frame rate : 93.750 FPS (512 SPF) Bit depth : 24 bits Compression mode : Lossy Stream size : 1.21 GiB (4%) Title : American.Made.2017.1080p.BluRay.REMUX.AVC.DTS-X.7.1-FGT Language : English Default : No Forced : No Audio #3 ID : 4 Format : DTS Format/Info : Digital Theater Systems Codec ID : A_DTS Duration : 1 h 54 min Bit rate mode : Constant Bit rate : 255 kb/s Channel(s) : 2 channels Channel positions : Front: L R Sampling rate : 48.0 kHz Frame rate : 93.750 FPS (512 SPF) Bit depth : 24 bits Compression mode : Lossy Stream size : 210 MiB (1%) Title : American.Made.2017.1080p.BluRay.REMUX.AVC.DTS-X.7.1-FGT Language : English Default : No Forced : No Audio #4 ID : 5 Format : DTS Format/Info : Digital Theater Systems Codec ID : A_DTS Duration : 1 h 54 min Bit rate mode : Constant Bit rate : 768 kb/s Channel(s) : 6 channels Channel positions : Front: L C R, Side: L R, LFE Sampling rate : 48.0 kHz Frame rate : 93.750 FPS (512 SPF) Bit depth : 24 bits Compression mode : Lossy Stream size : 632 MiB (2%) Title : American.Made.2017.1080p.BluRay.REMUX.AVC.DTS-X.7.1-FGT Language : French Default : No Forced : No Audio #5 ID : 6 Format : DTS Format/Info : Digital Theater Systems Format profile : X / MA / Core Codec ID : A_DTS Bit rate mode : Variable / Variable / Constant Bit rate : Unknown / Unknown / 1 509 kb/s Channel(s) : Object Based / 8 channels / 6 channels Channel positions : Object Based / Front: L C R, Side: L R, Back: L R, LFE / Front: L C R, Side: L R, LFE Sampling rate : / 48.0 kHz / 48.0 kHz Frame rate : 93.750 FPS (512 SPF) Bit depth : / 24 bits / 24 bits Compression mode : / Lossless / Lossy Title : American.Made.2017.1080p.BluRay.REMUX.AVC.DTS-X.7.1-FGT Language : German Default : No Forced : No Audio #6 ID : 7 Format : DTS Format/Info : Digital Theater Systems Codec ID : A_DTS Duration : 1 h 54 min Bit rate mode : Constant Bit rate : 1 509 kb/s Channel(s) : 6 channels Channel positions : Front: L C R, Side: L R, LFE Sampling rate : 48.0 kHz Frame rate : 93.750 FPS (512 SPF) Bit depth : 24 bits Compression mode : Lossy Stream size : 1.21 GiB (4%) Title : American.Made.2017.1080p.BluRay.REMUX.AVC.DTS-X.7.1-FGT Language : German Default : No Forced : No Audio #7 ID : 8 Format : DTS Format/Info : Digital Theater Systems Codec ID : A_DTS Duration : 1 h 54 min Bit rate mode : Constant Bit rate : 768 kb/s Channel(s) : 6 channels Channel positions : Front: L C R, Side: L R, LFE Sampling rate : 48.0 kHz Frame rate : 93.750 FPS (512 SPF) Bit depth : 24 bits Compression mode : Lossy Stream size : 632 MiB (2%) Title : American.Made.2017.1080p.BluRay.REMUX.AVC.DTS-X.7.1-FGT Language : Italian Default : No Forced : No Audio #8 ID : 9 Format : DTS Format/Info : Digital Theater Systems Codec ID : A_DTS Duration : 1 h 54 min Bit rate mode : Constant Bit rate : 768 kb/s Channel(s) : 6 channels Channel positions : Front: L C R, Side: L R, LFE Sampling rate : 48.0 kHz Frame rate : 93.750 FPS (512 SPF) Bit depth : 24 bits Compression mode : Lossy Stream size : 632 MiB (2%) Title : American.Made.2017.1080p.BluRay.REMUX.AVC.DTS-X.7.1-FGT Language : Spanish Default : No Forced : No Text #1 ID : 10 Format : PGS Muxing mode : zlib Codec ID : S_HDMV/PGS Codec ID/Info : Picture based subtitle format used on BDs/HD-DVDs Title : English-PGS Language : English Default : Yes Forced : No Text #2 ID : 11 Format : PGS Muxing mode : zlib Codec ID : S_HDMV/PGS Codec ID/Info : Picture based subtitle format used on BDs/HD-DVDs Title : French-PGS Language : French Default : No Forced : No Text #3 ID : 12 Format : PGS Muxing mode : zlib Codec ID : S_HDMV/PGS Codec ID/Info : Picture based subtitle format used on BDs/HD-DVDs Title : German-PGS Language : German Default : No Forced : No Text #4 ID : 13 Format : PGS Muxing mode : zlib Codec ID : S_HDMV/PGS Codec ID/Info : Picture based subtitle format used on BDs/HD-DVDs Title : Italian-PGS Language : Italian Default : No Forced : No Text #5 ID : 14 Format : PGS Muxing mode : zlib Codec ID : S_HDMV/PGS Codec ID/Info : Picture based subtitle format used on BDs/HD-DVDs Title : Spanish-PGS Language : Spanish Default : No Forced : No Text #6 ID : 15 Format : PGS Muxing mode : zlib Codec ID : S_HDMV/PGS Codec ID/Info : Picture based subtitle format used on BDs/HD-DVDs Title : Dutch-PGS Language : Dutch Default : No Forced : No Text #7 ID : 16 Format : PGS Muxing mode : zlib Codec ID : S_HDMV/PGS Codec ID/Info : Picture based subtitle format used on BDs/HD-DVDs Title : Danish-PGS Language : Danish Default : No Forced : No Text #8 ID : 17 Format : PGS Muxing mode : zlib Codec ID : S_HDMV/PGS Codec ID/Info : Picture based subtitle format used on BDs/HD-DVDs Title : Finnish-PGS Language : Finnish Default : No Forced : No Text #9 ID : 18 Format : PGS Muxing mode : zlib Codec ID : S_HDMV/PGS Codec ID/Info : Picture based subtitle format used on BDs/HD-DVDs Title : Norwegian-PGS Language : Norwegian Default : No Forced : No Text #10 ID : 19 Format : PGS Muxing mode : zlib Codec ID : S_HDMV/PGS Codec ID/Info : Picture based subtitle format used on BDs/HD-DVDs Title : Swedish-PGS Language : Swedish Default : No Forced : No Text #11 ID : 20 Format : PGS Muxing mode : zlib Codec ID : S_HDMV/PGS Codec ID/Info : Picture based subtitle format used on BDs/HD-DVDs Title : Portuguese-PGS Language : Portuguese Default : No Forced : No Text #12 ID : 21 Format : PGS Muxing mode : zlib Codec ID : S_HDMV/PGS Codec ID/Info : Picture based subtitle format used on BDs/HD-DVDs Title : Hindi-PGS Language : Hindi Default : No Forced : No Text #13 ID : 22 Format : PGS Muxing mode : zlib Codec ID : S_HDMV/PGS Codec ID/Info : Picture based subtitle format used on BDs/HD-DVDs Title : Chinese-PGS Language : Chinese Default : No Forced : No Text #14 ID : 23 Format : PGS Muxing mode : zlib Codec ID : S_HDMV/PGS Codec ID/Info : Picture based subtitle format used on BDs/HD-DVDs Title : Arabic-PGS Language : Arabic Default : No Forced : No Text #15 ID : 24 Format : PGS Muxing mode : zlib Codec ID : S_HDMV/PGS Codec ID/Info : Picture based subtitle format used on BDs/HD-DVDs Title : Icelandic-PGS Language : Icelandic Default : No Forced : No Text #16 ID : 25 Format : PGS Muxing mode : zlib Codec ID : S_HDMV/PGS Codec ID/Info : Picture based subtitle format used on BDs/HD-DVDs Title : English-FORCED-PGS Language : English Default : No Forced : No Text #17 ID : 26 Format : PGS Muxing mode : zlib Codec ID : S_HDMV/PGS Codec ID/Info : Picture based subtitle format used on BDs/HD-DVDs Title : French-FORCED-PGS Language : French Default : No Forced : No Text #18 ID : 27 Format : PGS Muxing mode : zlib Codec ID : S_HDMV/PGS Codec ID/Info : Picture based subtitle format used on BDs/HD-DVDs Title : German-FORCED-PGS Language : German Default : No Forced : No Text #19 ID : 28 Format : PGS Muxing mode : zlib Codec ID : S_HDMV/PGS Codec ID/Info : Picture based subtitle format used on BDs/HD-DVDs Title : Italian-FORCED-PGS Language : Italian Default : No Forced : No Text #20 ID : 29 Format : PGS Muxing mode : zlib Codec ID : S_HDMV/PGS Codec ID/Info : Picture based subtitle format used on BDs/HD-DVDs Title : Spanish-FORCED-PGS Language : Spanish Default : No Forced : No
November 21, 2017
American.Made.2017.1080p.WEB-DL.DD5.1.H264-FGT
Video and audio quality: 5/5 | Source: Official web stream

Submitted by: Mavoy | Trust Rank level: Standard member
Format: Official stream | Site: RarBG
1080p copy, without Korean subtitles
October 13, 2017
American.Made.2017.720p.HC.HDRip.X264.AC3-EVO[EtHD]
Video and audio quality: 4/5 | Source: Foreign web stream

Submitted by: Ramona Flowers | Trust Rank level: Professional
Format: Torrent | Site: ThePirateBay
Hardcoded Korean subtitles.
October 08, 2017
American Made 2017 CAM XViD-26k
Video and audio quality: 1/5 | Source: Camera

Submitted by: Bannister | Trust Rank level: Standard member
Format: Torrent | Site: Scene
Looks terrible.

Videos Add media

Official Trailer
Official Trailer

Movie News

There are no member news items for this movie.
To write a comment please register or