After We Collided

After We Collided

Hot
Ivana 🌿Ivana 🌿   July 28, 2020  
Add to list
After We Collided

Movie info

Title
Confirmed and upcoming movie titles only! Search before adding to avoid dupes.
After We Collided
Year
The year the movie is set to be released.
2020
Director
Roger Kumble
Genre
Pick one or multiple movie genres.
Cinema release
First cinema release date in any country.
September 02, 2020
Digital release
Official digital release date on services such as iTunes, Amazon, Netflix. It's the first known release date, without any country restriction. So if it's out on iTunes Russia first, this would be the digital release date.
October 12, 2020
Description
Based on the 2014 romance novel of the same name. Starring Josephine Langford, Hero Fiennes Tiffin, Shane Paul McGhie, Dylan Sprouse, Louise Lombard, Charlie Weber.
Where you watch

Where you watch Email alert

Yes, it is available and reported below. Use the alert button to get notified when higher quality versions are available.

Download and stream reports

Is there a After We Collided torrent? Yes. Reports are available below.
When will After We Collided be available on VOD? It's set for a October 12, 2020 release.

December 03, 2020
After.We.Collided.2020.1080p.BluRay.x264.DTS-HD.MA.5.1-FGT
Video and audio quality: 5/5 | Source: BluRay

Submitted by: Mr. Meeseeks | Trust Rank level: Supreme Member
Format: Torrent | Site: RARBG
Video ID : 1 Format : AVC Format/Info : Advanced Video Codec Format profile : High@L4.1 Format settings : CABAC / 4 Ref Frames Format settings, CABAC : Yes Format settings, Reference frames : 4 frames Codec ID : V_MPEG4/ISO/AVC Duration : 1 h 45 min Bit rate : 11.5 Mb/s Width : 1 920 pixels Height : 804 pixels Display aspect ratio : 2.40:1 Frame rate mode : Constant Frame rate : 24.000 FPS Color space : YUV Chroma subsampling : 4:2:0 Bit depth : 8 bits Scan type : Progressive Bits/(Pixel*Frame) : 0.310 Stream size : 8.50 GiB (74%) Title : After.We.Collided.2020.1080p.BluRay.x264.DTS-HD.MA.5.1-FGT Writing library : x264 core 148 r2748 97eaef2 Language : English Default : Yes Forced : No Audio ID : 2 ID in the original source medium : 4353 (0x1101) Format : DTS XLL Format/Info : Digital Theater Systems Commercial name : DTS-HD Master Audio Codec ID : A_DTS Duration : 1 h 45 min Bit rate mode : Variable Bit rate : 4 101 kb/s Channel(s) : 6 channels Channel layout : C L R Ls Rs LFE Sampling rate : 48.0 kHz Frame rate : 93.750 FPS (512 SPF) Bit depth : 24 bits Compression mode : Lossless Stream size : 3.03 GiB (26%) Title : After.We.Collided.2020.1080p.BluRay.x264.DTS-HD.MA.5.1-FGT Language : English Default : Yes Forced : No Original source medium : Blu-ray
October 23, 2020
After We Collided.2020.1080p.WEB-DL.H264.AC3-EVO
Video and audio quality: 5/5 | Source: Official web stream

Submitted by: Ivana 🌿 | Trust Rank level: Supreme Member
Format: Torrent | Site: TorrentGalaxy
Duration: 1h 45min Resolution: 1920x804 Language: English
September 06, 2020
After.2.2020.HDCAM.850MB.c1nem4.x264-SUNSCREEN[TGx]
Video and audio quality: 1/5 | Source: Camera

Submitted by: Myrical475 | Trust Rank level: Standard member
Format: Torrent | Site: TorrentGalaxy

Videos Add media

AFTER 2 Official Trailer (2020) After We Collided, Romance Movie HD
AFTER 2 Official Trailer (2020) After We Collided,...