After Midnight

After Midnight

Hot
Mr. MeeseeksMr. Meeseeks   December 25, 2019  
Add to list
After Midnight

Movie info

Title
Confirmed and upcoming movie titles only! Search before adding to avoid dupes.
After Midnight
Year
The year the movie is set to be released.
2020
Genre
Pick one or multiple movie genres.
Cinema release
First cinema release date in any country.
February 14, 2020
Description
Starring Jeremy Gardner, Brea Grant, Henry Zebrowski, Ashley Song, Nicola Masciotra, and Justin Benson.
Where you watch

Where you watch Email alert

Yes, it is available and reported below. Use the alert button to get notified when higher quality versions are available.

Download and stream reports

Can I download or stream After Midnight? Yes. Reports of pirated torrents and streams are available below.
When will After Midnight be available on digital platforms like iTunes, Amazon or Apple+? As of now, there's no release date announced. This includes iTunes, Amazon, Blu-Ray and DVD.

May 30, 2020
After.Midnight.2019.1080p.BluRay.x264.DTS-FGT
Video and audio quality: 5/5 | Source: BluRay

Submitted by: Mr. Meeseeks | Trust Rank level: Supreme Member
Format: Torrent | Site: RARBG
Video ID : 1 Format : AVC Format/Info : Advanced Video Codec Format profile : High@L4.1 Format settings : CABAC / 4 Ref Frames Format settings, CABAC : Yes Format settings, Reference frames : 4 frames Codec ID : V_MPEG4/ISO/AVC Duration : 1 h 23 min Bit rate : 11.5 Mb/s Width : 1 920 pixels Height : 804 pixels Display aspect ratio : 2.40:1 Frame rate mode : Constant Frame rate : 23.976 (24000/1001) FPS Color space : YUV Chroma subsampling : 4:2:0 Bit depth : 8 bits Scan type : Progressive Bits/(Pixel*Frame) : 0.311 Stream size : 6.68 GiB (88%) Writing library : x264 core 148 r2795M aaa9aa8 Encoding settings : cabac=1 / ref=4 / deblock=1:-2:-2 / analyse=0x3:0x113 / me=umh / subme=9 / psy=1 / psy_rd=1.00:0.15 / mixed_ref=1 / me_range=16 / chroma_me=1 / trellis=2 / 8x8dct=1 / cqm=0 / deadzone=21,11 / fast_pskip=1 / chroma_qp_offset=-3 / threads=24 / lookahead_threads=3 / sliced_threads=0 / nr=0 / decimate=1 / interlaced=0 / bluray_compat=0 / constrained_intra=0 / bframes=3 / b_pyramid=2 / b_adapt=1 / b_bias=0 / direct=3 / weightb=1 / open_gop=0 / weightp=2 / keyint=250 / keyint_min=25 / scenecut=40 / intra_refresh=0 / rc_lookahead=50 / rc=2pass / mbtree=1 / bitrate=11500 / ratetol=1.0 / qcomp=0.60 / qpmin=0 / qpmax=69 / qpstep=4 / cplxblur=20.0 / qblur=0.5 / vbv_maxrate=31250 / vbv_bufsize=31250 / nal_hrd=none / filler=0 / ip_ratio=1.40 / aq=1:1.00 Language : English Default : Yes Forced : No Audio ID : 2 Format : DTS Format/Info : Digital Theater Systems Codec ID : A_DTS Duration : 1 h 23 min Bit rate mode : Constant Bit rate : 1 509 kb/s Channel(s) : 6 channels Channel layout : C L R Ls Rs LFE Sampling rate : 48.0 kHz Frame rate : 93.750 FPS (512 SPF) Bit depth : 16 bits Compression mode : Lossy Stream size : 899 MiB (12%) Language : English Default : Yes Forced : No Text ID : 3 Format : UTF-8 Codec ID : S_TEXT/UTF8 Codec ID/Info : UTF-8 Plain Text Duration : 1 h 22 min Bit rate : 54 b/s Count of elements : 1014 Stream size : 33.0 KiB (0%) Language : English Default : Yes Forced : No
February 14, 2020
After.Midnight.2019.720p.WEBRip.800MB.x264-GalaxyRG
Video and audio quality: 5/5 | Source: Official web stream

Submitted by: Mr. Meeseeks | Trust Rank level: Supreme Member
Format: Torrent | Site: TorrentGalaxy
Container = Matroska (mkv) Duration = 01:23:14.101 Filesize = 797 MiB Overall bitrate = 1 338 kb/s Video Codec info = AVC High@L3.1 | V_MPEG4/ISO/AVC Resolution = 1280x528 Display AR = 2.394 | 2.40:1 Bitrate = 4 533 kb/s Framerate = VFR 23.976 Color space = YUV Chroma subsampling = 4:2:0 Encoder = x264 - core 157 Audio Codec info = AAC | A_AAC-2 Channels = 2 Bitrate = 384 kb/s Samplerate = 48.0 kHz Language = English

Videos Add media

After Midnight (2020) Official Trailer | Jeremy Gardner, Brea Grant, Henry Zebrowski Movie HD
After Midnight (2020) Official Trailer | Jeremy Ga...