A Man Named Scott

A Man Named Scott

Mr. MeeseeksMr. Meeseeks   October 27, 2021  
Add to list
A Man Named Scott

Movie info

Title
Confirmed and upcoming movie titles only! Search before adding to avoid dupes.
A Man Named Scott
Year
The year the movie is set to be released.
2021
Director
Robert Alexander
Genre
Pick one or multiple movie genres.
Digital release
Official digital release date on services such as iTunes, Amazon, Netflix. It's the first known release date, without any country restriction. So if it's out on iTunes Russia first, this would be the digital release date.
November 05, 2021
Description
Courtesy of Amazon Prime Video, "A Man Named Scott" is a documentary film about musician Kid Cudi.
Where you watch

Where you watch Email alert

Yes, it is available and reported below. Use the alert button to get notified when higher quality versions are available.

Download and stream reports

Is there a A Man Named Scott torrent? Yes. Reports are available below.
When will A Man Named Scott be available on VOD? It's set for a November 05, 2021 release.

November 05, 2021
A.Man.Named.Scott.2021.1080p.WEB.H264-BIGDOC
Video and audio quality: 5/5 | Source: Official web stream

Submitted by: Mr. Meeseeks | Trust Rank level: Supreme Member
Format: Torrent | Site: RARBG
Video ID : 1 Format : AVC Format/Info : Advanced Video Codec Format profile : High@L4 Format settings : CABAC / 4 Ref Frames Format settings, CABAC : Yes Format settings, Reference frames : 4 frames Codec ID : V_MPEG4/ISO/AVC Duration : 1 h 34 min Bit rate mode : Constant Bit rate : 7 504 kb/s Nominal bit rate : 10 000 kb/s Width : 1 920 pixels Height : 1 080 pixels Display aspect ratio : 16:9 Frame rate mode : Constant Frame rate : 23.976 (24000/1001) FPS Color space : YUV Chroma subsampling : 4:2:0 Bit depth : 8 bits Scan type : Progressive Bits/(Pixel*Frame) : 0.151 Stream size : 4.98 GiB (90%) Default : Yes Forced : No Color range : Limited Color primaries : BT.709 Transfer characteristics : BT.709 Matrix coefficients : BT.709 Audio ID : 2 Format : E-AC-3 Format/Info : Enhanced AC-3 Commercial name : Dolby Digital Plus Codec ID : A_EAC3 Duration : 1 h 34 min Bit rate mode : Constant Bit rate : 640 kb/s Channel(s) : 6 channels Channel layout : L R C LFE Ls Rs Sampling rate : 48.0 kHz Frame rate : 31.250 FPS (1536 SPF) Compression mode : Lossy Stream size : 435 MiB (8%) Language : English Service kind : Complete Main Default : Yes Forced : No

Videos Add media

A Man Named Scott | Official Trailer | Prime Video
A Man Named Scott | Official Trailer | Prime Video