A Madea Family Funeral

A Madea Family Funeral

Hot
Mr. MeeseeksMr. Meeseeks   February 03, 2019  
Add to list
A Madea Family Funeral

Movie info

TITLE
Confirmed and upcoming movie titles only! Search before adding to avoid dupes.
A Madea Family Funeral
YEAR
The year the movie is set to be released.
2019
DIRECTOR
GENRE
Pick one or multiple movie genres.
CINEMA
First cinema release date in any country.
March 01, 2019
DESCRIPTION
Starring Cassi Davis, Patrice Lovely, and Tyler Perry.
WHERE YOU WATCH

Where you watch Email alert

The movie is online and reported below, Use the alert button to get notified when higher quality versions are available.

Reports

Is A Madea Family Funeral available online? Yes. Reports of pirated torrents and streams are available below.
When will A Madea Family Funeral be available on digital platforms like iTunes or Amazon? As of now, there's no release data announced. This includes iTunes, Amazon, Blu-Ray and DVD.

May 30, 2019
A.Madea.Family.Funeral.2019.1080p.BluRay.x264-GECKOS
Video and audio quality: 5/5 | Source: BluRay

Submitted by: Ivana 🌿 | Trust Rank level: Legend Member
Format: Torrent | Site: RARBG
Duration: 1h 49min Resolution: 1920x1040 Language: English
May 20, 2019
A.Madea.Family.Funeral.2019.WEB-DL.XviD.MP3-FGT
Video and audio quality: 5/5 | Source: Official web stream

Submitted by: Mr. Meeseeks | Trust Rank level: Supreme Member
Format: Torrent | Site: RARBG
Video ID : 0 Format : MPEG-4 Visual Format profile : [email protected] Format settings, BVOP : No Format settings, QPel : No Format settings, GMC : No warppoints Format settings, Matrix : Default (H.263) Codec ID : XVID Codec ID/Hint : XviD Duration : 1 h 49 min Bit rate : 1 598 kb/s Width : 720 pixels Height : 388 pixels Display aspect ratio : 1.85:1 Frame rate : 23.976 (24000/1001) FPS Color space : YUV Chroma subsampling : 4:2:0 Bit depth : 8 bits Scan type : Progressive Compression mode : Lossy Bits/(Pixel*Frame) : 0.239 Stream size : 1.22 GiB (89%) Writing library : Lavc58.1.100 Audio ID : 1 Format : MPEG Audio Format version : Version 1 Format profile : Layer 3 Format settings : Joint stereo / MS Stereo Codec ID : 55 Codec ID/Hint : MP3 Duration : 1 h 49 min Bit rate mode : Constant Bit rate : 192 kb/s Channel(s) : 2 channels Sampling rate : 48.0 kHz Compression mode : Lossy Stream size : 150 MiB (11%) Alignment : Aligned on interleaves Interleave, duration : 24 ms (0.58 video frame) Interleave, preload duration : 504 ms Writing library : LAME3.99 (alph
April 13, 2019
A Madea Family Funeral.2019.NEW HDCAM.x264.AC3-ETRG
Video and audio quality: 1/5 | Source: Camera

Submitted by: Costa | Trust Rank level: Hero member
Format: Torrent | Site: 1337x
No ads, no watermarks
March 05, 2019
A Madea Family Funeral 2019 READNFO CAM WaTcHeRs
Video and audio quality: 1/5 | Source: Camera

Submitted by: Costa | Trust Rank level: Hero member
Format: Torrent | Site: 1337x
Notes: "NFO.. Video itself has head in it most way through ,and watermark in middle throughout so be warned but all there is atm FIRST on NET No one else has this You won't find this on kido "

Videos Add media

Tyler Perry’s A Madea Family Funeral (2019 Movie) Official Trailer - Tyler Perry, Cassi Davis
Tyler Perry’s A Madea Family Funeral (2019 Movie...