A Loud House Christmas

A Loud House Christmas

Mr. MeeseeksMr. Meeseeks   October 17, 2021  
Add to list
A Loud House Christmas

Movie info

Title
Confirmed and upcoming movie titles only! Search before adding to avoid dupes.
A Loud House Christmas
Year
The year the movie is set to be released.
2021
Director
Jonathan Judge
Genre
Pick one or multiple movie genres.
Digital release
Official digital release date on services such as iTunes, Amazon, Netflix. It's the first known release date, without any country restriction. So if it's out on iTunes Russia first, this would be the digital release date.
November 26, 2021
Description
Starring Wolfgang Schaeffer, Jahzir Bruno, Brian Stepanek, Muretta Moss, Lexi DiBenedetto, Dora Dolphin, Sophia Woodward, Catherine Ashmore Bradley, Morgan McGill, Aubin Bradley, Ella Allan, Mia Allan, Lexi Janicek, and Charlotte Ann Tucker.
Where you watch

Where you watch Email alert

Yes, it is available and reported below. Use the alert button to get notified when higher quality versions are available.

Download and stream reports

Is there a A Loud House Christmas torrent? Yes. Reports are available below.
When will A Loud House Christmas be available on VOD? It's set for a November 26, 2021 release.

November 27, 2021
A.Loud.House.Christmas.2021.720p.HDTV.x264-CRiMSON
Video and audio quality: 5/5 | Source: Official web stream

Submitted by: Mr. Meeseeks | Trust Rank level: Supreme Member
Format: Torrent | Site: RARBG
Video ID : 1 Format : AVC Format/Info : Advanced Video Codec Format profile : High@L4.1 Format settings : CABAC / 5 Ref Frames Format settings, CABAC : Yes Format settings, Reference frames : 5 frames Codec ID : V_MPEG4/ISO/AVC Duration : 1 h 3 min Bit rate : 3 380 kb/s Width : 1 280 pixels Height : 720 pixels Display aspect ratio : 16:9 Frame rate mode : Constant Frame rate : 23.976 (24000/1001) FPS Color space : YUV Chroma subsampling : 4:2:0 Bit depth : 8 bits Scan type : Progressive Bits/(Pixel*Frame) : 0.153 Stream size : 1.51 GiB (90%) Writing library : x264 core 164 r3075 66a5bc1 Encoding settings : cabac=1 / ref=5 / deblock=1:-3:-3 / analyse=0x3:0x113 / me=umh / subme=8 / psy=1 / psy_rd=1.00:0.15 / mixed_ref=1 / me_range=16 / chroma_me=1 / trellis=2 / 8x8dct=1 / cqm=0 / deadzone=21,11 / fast_pskip=1 / chroma_qp_offset=-3 / threads=18 / lookahead_threads=3 / sliced_threads=0 / nr=0 / decimate=1 / interlaced=0 / bluray_compat=0 / constrained_intra=0 / bframes=3 / b_pyramid=2 / b_adapt=2 / b_bias=0 / direct=3 / weightb=1 / open_gop=0 / weightp=2 / keyint=240 / keyint_min=23 / scenecut=40 / intra_refresh=0 / rc_lookahead=50 / rc=crf / mbtree=1 / crf=18.0 / qcomp=0.60 / qpmin=0 / qpmax=69 / qpstep=4 / vbv_maxrate=62500 / vbv_bufsize=78125 / crf_max=0.0 / nal_hrd=none / filler=0 / ip_ratio=1.40 / aq=1:1.00 Language : English Default : Yes Forced : No Color range : Limited Matrix coefficients : BT.709 Audio ID : 3 Format : AC-3 Format/Info : Audio Coding 3 Commercial name : Dolby Digital Codec ID : A_AC3 Duration : 1 h 3 min Bit rate mode : Constant Bit rate : 384 kb/s Channel(s) : 6 channels Channel layout : L R C LFE Ls Rs Sampling rate : 48.0 kHz Frame rate : 31.250 FPS (1536 SPF) Compression mode : Lossy Stream size : 175 MiB (10%) Language : English Service kind : Complete Main Default : Yes Forced : No Text ID : 2 Format : UTF-8 Codec ID : S_TEXT/UTF8 Codec ID/Info : UTF-8 Plain Text Duration : 1 h 3 min Bit rate : 139 b/s Count of elements : 1498 Stream size : 65.3 KiB (0%) Language : English Default : No Forced : No

Videos Add media

A Loud House Christmas ? Official Trailer | Nickelodeon Original Movie
A Loud House Christmas ? Official Trailer | Nickel...