A Cop Movie

A Cop Movie

Mr. MeeseeksMr. Meeseeks   September 13, 2021  
Add to list
A Cop Movie

Movie info

Title
Confirmed and upcoming movie titles only! Search before adding to avoid dupes.
A Cop Movie
Year
The year the movie is set to be released.
2021
Director
Alonso Ruizpalacios
Genre
Pick one or multiple movie genres.
Digital release
Official digital release date on services such as iTunes, Amazon, Netflix. It's the first known release date, without any country restriction. So if it's out on iTunes Russia first, this would be the digital release date.
November 05, 2021
Description
Courtesy of Netflix, "A Cop Movie" is a documentary about two actors who join the Mexico City Police. The film premiered at the 2021 Berlin Film Festival, winning the Silver Bear award for Outstanding Artistic Contribution in Editing.
Where you watch

Where you watch Email alert

Yes, it is available and reported below. Use the alert button to get notified when higher quality versions are available.

Download and stream reports

Is there a A Cop Movie torrent? Yes. Reports are available below.
When will A Cop Movie be available on VOD? It's set for a November 05, 2021 release.

November 05, 2021
A.Cop.Movie.2021.1080p.WEB.h264-RUMOUR
Video and audio quality: 5/5 | Source: Official web stream

Submitted by: Mr. Meeseeks | Trust Rank level: Supreme Member
Format: Torrent | Site: RARBG
Video ID : 1 Format : AVC Format/Info : Advanced Video Codec Format profile : Main@L4 Format settings : CABAC / 3 Ref Frames Format settings, CABAC : Yes Format settings, Reference frames : 3 frames Codec ID : V_MPEG4/ISO/AVC Duration : 1 h 47 min Bit rate mode : Variable Bit rate : 2 204 kb/s Nominal bit rate : 1 749 kb/s Maximum bit rate : 4 305 kb/s Width : 1 920 pixels Height : 1 080 pixels Display aspect ratio : 16:9 Frame rate mode : Constant Frame rate : 23.976 (24000/1001) FPS Color space : YUV Chroma subsampling : 4:2:0 Bit depth : 8 bits Scan type : Progressive Bits/(Pixel*Frame) : 0.044 Stream size : 1.66 GiB (76%) Writing library : x264 core 148 r2724 dbe0335 Encoding settings : cabac=1 / ref=3 / deblock=1:0:0 / analyse=0x1:0x111 / me=umh / subme=10 / psy=1 / psy_rd=1.00:0.00 / mixed_ref=1 / me_range=24 / chroma_me=1 / trellis=2 / 8x8dct=0 / cqm=0 / deadzone=21,11 / fast_pskip=1 / chroma_qp_offset=-2 / threads=6 / lookahead_threads=1 / sliced_threads=0 / nr=0 / decimate=1 / interlaced=0 / bluray_compat=0 / stitchable=1 / constrained_intra=0 / bframes=2 / b_pyramid=0 / b_adapt=2 / b_bias=0 / direct=3 / weightb=1 / open_gop=0 / weightp=2 / keyint=250 / keyint_min=23 / scenecut=0 / intra_refresh=0 / rc_lookahead=48 / rc=2pass / mbtree=1 / bitrate=1749 / ratetol=1.0 / qcomp=0.50 / qpmin=6 / qpmax=51 / qpstep=4 / cplxblur=20.0 / qblur=0.5 / vbv_maxrate=4305 / vbv_bufsize=5740 / nal_hrd=vbr / filler=0 / ip_ratio=1.40 / aq=1:1.00 Language : Spanish Default : Yes Forced : No Audio ID : 2 Format : E-AC-3 Format/Info : Enhanced AC-3 Commercial name : Dolby Digital Plus Codec ID : A_EAC3 Duration : 1 h 47 min Bit rate mode : Constant Bit rate : 640 kb/s Channel(s) : 6 channels Channel layout : L R C LFE Ls Rs Sampling rate : 48.0 kHz Frame rate : 31.250 FPS (1536 SPF) Compression mode : Lossy Stream size : 492 MiB (22%) Language : Spanish Service kind : Complete Main Default : Yes Forced : No

Videos Add media

A Cop Movie | Official Trailer | Netflix
A Cop Movie | Official Trailer | Netflix