A Bag of Marbles

A Bag of Marbles

Mr. MeeseeksMr. Meeseeks   March 07, 2018  
News (0)
Add to list
A Bag of Marbles

Movie info

TITLE
Confirmed and upcoming movie titles only! Search before adding to avoid dupes.
YEAR
The year the movie is set to be released.
2017
GENRE
Pick one or multiple movie genres.
CINEMA
First cinema release date in any country.
January 15, 2017
DESCRIPTION
This French film follows two adolescent brothers living in Nazi-occupied France, avoiding enemy detection and seeking out their family.
WHERE YOU WATCH

Where you watch Email alert

The movie is online and reported below, Use the alert button to get notified when higher quality versions are available.

Reports

March 17, 2018
Release: Un.Sac.De.Billes.[A.Bag.Of.Marbles].2017.1080p.BRRip.x264.AC3.HORiZON-ArtSubs
Video and audio quality: 5/5 | Source: BluRay

Submitted by: Mr. Meeseeks | Trust Rank level: Legend Member
Format: Torrent | Site: 1337x
Video ID : 1 Format : AVC Format/Info : Advanced Video Codec Format profile : [email protected] Format settings, CABAC : Yes Format settings, ReFrames : 4 frames Codec ID : V_MPEG4/ISO/AVC Duration : 1h 52mn Bit rate : 1 623 Kbps Nominal bit rate : 1 715 Kbps Width : 1 920 pixels Height : 800 pixels Display aspect ratio : 2.40:1 Frame rate mode : Constant Frame rate : 24.000 fps Color space : YUV Chroma subsampling : 4:2:0 Bit depth : 8 bits Scan type : Progressive Bits/(Pixel*Frame) : 0.044 Stream size : 1.28 GiB (70%) Writing library : x264 core 112 Language : English Default : Yes Forced : No Audio ID : 2 Format : AC-3 Format/Info : Audio Coding 3 Mode extension : CM (complete main) Format settings, Endianness : Big Codec ID : A_AC3 Duration : 1h 52mn Bit rate mode : Constant Bit rate : 640 Kbps Channel count : 6 channels Channel positions : Front: L C R, Side: L R, LFE Sampling rate : 48.0 KHz Bit depth : 16 bits Compression mode : Lossy Stream size : 516 MiB (28%) Language : French Default : Yes Forced : No Text #1 ID : 3 Format : UTF-8 Codec ID : S_TEXT/UTF8 Codec ID/Info : UTF-8 Plain Text Language : French Default : No Forced : No Text #2 ID : 4 Format : UTF-8 Codec ID : S_TEXT/UTF8 Codec ID/Info : UTF-8 Plain Text Language : English Default : No Forced : No Text #3 ID : 5 Format : UTF-8 Codec ID : S_TEXT/UTF8 Codec ID/Info : UTF-8 Plain Text Language : Spanish Default : No Forced : No

Videos Add media

A Bag of Marbles / Un sac de billes (2017) - Trailer (English Subs)
A Bag of Marbles / Un sac de billes (2017) - Trail...

Movie News

There are no member news items for this movie.
To write a comment please register or