7 Prisoners

7 Prisoners

Mr. MeeseeksMr. Meeseeks   November 12, 2021  
Add to list
7 Prisoners

Movie info

Title
Confirmed and upcoming movie titles only! Search before adding to avoid dupes.
7 Prisoners
Year
The year the movie is set to be released.
2021
Director
Alexandre Moratto
Genre
Pick one or multiple movie genres.
Cinema release
First cinema release date in any country.
October 22, 2021
Digital release
Official digital release date on services such as iTunes, Amazon, Netflix. It's the first known release date, without any country restriction. So if it's out on iTunes Russia first, this would be the digital release date.
November 11, 2021
Description
Starring Christian Malheiros, Rodrigo Santoro, Bruno Rocha, Vitor Julian, Lucas Oranmian, Cecília Homem de Mello, and Dirce Thomaz.
Where you watch

Where you watch Email alert

Yes, it is available and reported below. Use the alert button to get notified when higher quality versions are available.

Download and stream reports

Is there a 7 Prisoners torrent? Yes. Reports are available below.
When will 7 Prisoners be available on VOD? It's set for a November 11, 2021 release.

November 12, 2021
7.Prisoners.2021.PORTUGUESE.1080p.NF.WEB-DL.x265.10bit.HDR.DDP5.1.Atmos-TEPES
Video and audio quality: 5/5 | Source: Official web stream

Submitted by: Mr. Meeseeks | Trust Rank level: Supreme Member
Format: Torrent | Site: RARBG
Video ID : 1 Format : HEVC Format/Info : High Efficiency Video Coding Format profile : Main 10@L4@Main HDR format : SMPTE ST 2086, HDR10 compatible Codec ID : V_MPEGH/ISO/HEVC Duration : 1 h 33 min Bit rate : 5 555 kb/s Width : 1 920 pixels Height : 1 080 pixels Display aspect ratio : 16:9 Frame rate mode : Constant Frame rate : 24.000 FPS Color space : YUV Chroma subsampling : 4:2:0 (Type 2) Bit depth : 10 bits Bits/(Pixel*Frame) : 0.112 Stream size : 3.63 GiB (80%) Default : Yes Forced : No Color range : Limited Color primaries : BT.2020 Transfer characteristics : PQ Matrix coefficients : BT.2020 non-constant Mastering display color primaries : Display P3 Mastering display luminance : min: 0.0001 cd/m2, max: 1000 cd/m2 Maximum Content Light Level : 1293 cd/m2 Maximum Frame-Average Light Level : 232 cd/m2 Audio #1 ID : 2 Format : E-AC-3 JOC Format/Info : Enhanced AC-3 with Joint Object Coding Commercial name : Dolby Digital Plus with Dolby Atmos Codec ID : A_EAC3 Duration : 1 h 34 min Bit rate mode : Constant Bit rate : 768 kb/s Channel(s) : 6 channels Channel layout : L R C LFE Ls Rs Sampling rate : 48.0 kHz Frame rate : 31.250 FPS (1536 SPF) Compression mode : Lossy Stream size : 519 MiB (11%) Title : Brazilian Language : Portuguese Service kind : Complete Main Default : Yes Forced : No Complexity index : 16 Number of dynamic objects : 15 Bed channel count : 1 channel Bed channel configuration : LFE Audio #2 ID : 3 Format : E-AC-3 Format/Info : Enhanced AC-3 Commercial name : Dolby Digital Plus Codec ID : A_EAC3 Duration : 1 h 34 min Bit rate mode : Constant Bit rate : 640 kb/s Channel(s) : 6 channels Channel layout : L R C LFE Ls Rs Sampling rate : 48.0 kHz Frame rate : 31.250 FPS (1536 SPF) Compression mode : Lossy Stream size : 433 MiB (9%) Language : English Service kind : Complete Main Default : No Forced : No Text #1 ID : 4 Format : UTF-8 Codec ID : S_TEXT/UTF8 Codec ID/Info : UTF-8 Plain Text Duration : 13 min 22 s Bit rate : 5 b/s Count of elements : 21 Stream size : 512 Bytes (0%) Title : Brazilian (Forced) Language : Portuguese Default : Yes Forced : Yes Text #2 ID : 5 Format : UTF-8 Codec ID : S_TEXT/UTF8 Codec ID/Info : UTF-8 Plain Text Duration : 1 h 23 min Bit rate : 1 b/s Count of elements : 26 Stream size : 849 Bytes (0%) Title : Forced Language : English Default : No Forced : No

Videos Add media

7 Prisoners (7 prisioneiros) | Official Trailer | Netflix
7 Prisoners (7 prisioneiros) | Official Trailer | ...