The War with Grandpa

The War with Grandpa

Mr. MeeseeksMr. Meeseeks   August 13, 2020  
Add to list
The War with Grandpa

Movie info

Title
Confirmed and upcoming movie titles only! Search before adding to avoid dupes.
The War with Grandpa
Year
The year the movie is set to be released.
2020
Director
Genre
Pick one or multiple movie genres.
Cinema release
First cinema release date in any country.
October 09, 2020
Description
Starring Robert De Niro, Oakes Fegley, Uma Thurman, Christopher Walken, Rob Riggle, Cheech Marin, Laura Marano, and Jane Seymour.
Where you watch

Where you watch Email alert

Yes, it is available and reported below. Use the alert button to get notified when higher quality versions are available.

Download and stream reports

Can I download or stream The War with Grandpa? Yes. Reports of pirated torrents and streams are available below.
When will The War with Grandpa be available on digital platforms like iTunes, Amazon or Apple+? As of now, there's no release date announced. This includes iTunes, Amazon, Blu-Ray and DVD.

September 14, 2020
The.War.With.Grandpa.2020.1080p.BluRay.REMUX.AVC.DTS-HD.MA.5.1-FGT
Video and audio quality: 5/5 | Source: BluRay

Submitted by: Mr. Meeseeks | Trust Rank level: Supreme Member
Format: Torrent | Site: RARBG
Video ID : 1 ID in the original source medium : 4113 (0x1011) Format : AVC Format/Info : Advanced Video Codec Format profile : High@L4.1 Format settings : CABAC / 4 Ref Frames Format settings, CABAC : Yes Format settings, Reference frames : 4 frames Format settings, GOP : M=3, N=12 Codec ID : V_MPEG4/ISO/AVC Duration : 1 h 38 min Bit rate mode : Variable Bit rate : 23.9 Mb/s Maximum bit rate : 38.0 Mb/s Width : 1 920 pixels Height : 1 080 pixels Display aspect ratio : 16:9 Frame rate mode : Constant Frame rate : 24.000 FPS Color space : YUV Chroma subsampling : 4:2:0 Bit depth : 8 bits Scan type : Progressive Bits/(Pixel*Frame) : 0.480 Stream size : 16.4 GiB (93%) Title : The.War.With.Grandpa.2020.1080p.BluRay.REMUX.AVC.DTS-HD.MA.5.1-FGT Language : English Default : No Forced : No Original source medium : Blu-ray Audio ID : 2 ID in the original source medium : 4353 (0x1101) Format : DTS XLL Format/Info : Digital Theater Systems Commercial name : DTS-HD Master Audio Codec ID : A_DTS Duration : 1 h 38 min Bit rate mode : Variable Bit rate : 1 891 kb/s Channel(s) : 6 channels Channel layout : C L R Ls Rs LFE Sampling rate : 48.0 kHz Frame rate : 93.750 FPS (512 SPF) Bit depth : 16 bits Compression mode : Lossless Stream size : 1.30 GiB (7%) Title : The.War.With.Grandpa.2020.1080p.BluRay.REMUX.AVC.DTS-HD.MA.5.1-FGT Language : English Default : Yes Forced : No Original source medium : Blu-ray
August 28, 2020
The.War.with.Grandpa.2020.720p.WEBRip.800MB.x264-GalaxyRG
Video and audio quality: 5/5 | Source: Official web stream

Submitted by: Mr. Meeseeks | Trust Rank level: Supreme Member
Format: Torrent | Site: TorrentGalaxy
Container = Matroska (mkv) Duration = 01:38:10.133 Filesize = 797 MiB Overall bitrate = 1 135 kb/s Video Codec info = AVC High@L3.1 | V_MPEG4/ISO/AVC Resolution = 1280x720 Display AR = 1.778 | 16:9 Bitrate = 5 969 kb/s Framerate = CFR 24.000 Color space = YUV Chroma subsampling = 4:2:0 Encoder = x264 - core 157 Audio Codec info = AAC | A_AAC-2 Channels = 2 Bitrate = 384 kb/s Samplerate = 48.0 kHz Language = English

Videos Add media

The War With Grandpa | Coming Soon - Only In Theaters!
The War With Grandpa | Coming Soon - Only In Theat...