Max Reload and The Nether Blasters

Max Reload and The Nether Blasters

Mr. MeeseeksMr. Meeseeks   June 26, 2020  
Add to list
Max Reload and The Nether Blasters

Movie info

Title
Confirmed and upcoming movie titles only! Search before adding to avoid dupes.
Max Reload and The Nether Blasters
Year
The year the movie is set to be released.
2020
Director
Scott Conditt & Jeremy Tremp
Genre
Pick one or multiple movie genres.
Cinema release
First cinema release date in any country.
August 07, 2020
Digital release
Official digital release date on services such as iTunes, Amazon, Netflix. It's the first known release date, without any country restriction. So if it's out on iTunes Russia first, this would be the digital release date.
August 11, 2020
Description
Starring Tom Plumley, Joey Morgan, Hassie Harrison, Greg Grunberg, Joseph Reitman, Kevin Smith, Lin Shaye, Martin Kove, and Wil Wheaton.
Where you watch

Where you watch Email alert

Yes, it is available and reported below. Use the alert button to get notified when higher quality versions are available.

Download and stream reports

Is there a Max Reload and The Nether Blasters torrent? Yes. Reports are available below.
When will Max Reload and The Nether Blasters be available on VOD? It's set for a August 11, 2020 release.

August 11, 2020
Max.Reload.and.the.Nether.Blasters.2020.1080p.BluRay.REMUX.AVC.LPCM.2.0-FGT
Video and audio quality: 5/5 | Source: BluRay

Submitted by: Mr. Meeseeks | Trust Rank level: Supreme Member
Format: Torrent | Site: RARBG
Video ID : 1 ID in the original source medium : 4113 (0x1011) Format : AVC Format/Info : Advanced Video Codec Format profile : High@L4.1 Format settings : CABAC / 3 Ref Frames Format settings, CABAC : Yes Format settings, Reference frames : 3 frames Codec ID : V_MPEG4/ISO/AVC Duration : 1 h 40 min Bit rate mode : Variable Bit rate : 20.0 Mb/s Maximum bit rate : 40.0 Mb/s Width : 1 920 pixels Height : 1 080 pixels Display aspect ratio : 16:9 Frame rate mode : Constant Frame rate : 23.976 (24000/1001) FPS Color space : YUV Chroma subsampling : 4:2:0 Bit depth : 8 bits Scan type : Progressive Bits/(Pixel*Frame) : 0.402 Stream size : 14.1 GiB (92%) Title : Max.Reload.and.the.Nether.Blasters.2020.1080p.BluRay.REMUX.AVC.LPCM.2.0-FGT Writing library : x264 core 157 r2935 545de2f Encoding settings : cabac=1 / ref=4 / deblock=1:-1:-1 / analyse=0x3:0x113 / me=hex / subme=7 / psy=1 / psy_rd=1.00:0.15 / mixed_ref=1 / me_range=16 / chroma_me=1 / trellis=1 / 8x8dct=1 / cqm=0 / deadzone=21,11 / fast_pskip=1 / chroma_qp_offset=-3 / threads=12 / lookahead_threads=2 / sliced_threads=0 / slices=4 / nr=0 / decimate=1 / interlaced=0 / bluray_compat=1 / constrained_intra=0 / bframes=3 / b_pyramid=1 / b_adapt=2 / b_bias=0 / direct=1 / weightb=1 / open_gop=1 / weightp=1 / keyint=23 / keyint_min=1 / scenecut=40 / intra_refresh=0 / rc_lookahead=23 / rc=2pass / mbtree=1 / bitrate=20000 / ratetol=1.0 / qcomp=0.60 / qpmin=0 / qpmax=69 / qpstep=4 / cplxblur=20.0 / qblur=0.5 / vbv_maxrate=40000 / vbv_bufsize=30000 / nal_hrd=vbr / filler=0 / ip_ratio=1.40 / aq=1:1.00 Language : English Default : No Forced : No Color range : Limited Color primaries : BT.709 Transfer characteristics : BT.709 Matrix coefficients : BT.709 Original source medium : Blu-ray Audio #1 ID : 2 ID in the original source medium : 4352 (0x1100) Format : PCM Format settings : Little / Signed Codec ID : A_PCM/INT/LIT Duration : 1 h 40 min Bit rate mode : Constant Bit rate : 1 536 kb/s Channel(s) : 2 channels Sampling rate : 48.0 kHz Frame rate : 30.000 FPS (1600 SPF) Bit depth : 16 bits Stream size : 1.08 GiB (7%) Title : Max.Reload.and.the.Nether.Blasters.2020.1080p.BluRay.REMUX.AVC.LPCM.2.0-FGT Language : English Default : Yes Forced : No Original source medium : Blu-ray Audio #2 ID : 3 ID in the original source medium : 4353 (0x1101) Format : AC-3 Format/Info : Audio Coding 3 Commercial name : Dolby Digital Codec ID : A_AC3 Duration : 1 h 33 min Bit rate mode : Constant Bit rate : 320 kb/s Channel(s) : 2 channels Channel layout : L R Sampling rate : 48.0 kHz Frame rate : 31.250 FPS (1536 SPF) Bit depth : 16 bits Compression mode : Lossy Stream size : 214 MiB (1%) Title : Max.Reload.and.the.Nether.Blasters.2020.1080p.BluRay.REMUX.AVC.LPCM.2.0-FGT Language : English Service kind : Complete Main Default : No Forced : No Original source medium : Blu-ray

Videos Add media

Max Reload and The Nether Blasters - Official Trailer 2020
Max Reload and The Nether Blasters - Official Trai...