Closed For Storm

Closed For Storm

Hot
Mr. MeeseeksMr. Meeseeks   May 20, 2020  
Add to list
Closed For Storm

Movie info

Title
Confirmed and upcoming movie titles only! Search before adding to avoid dupes.
Closed For Storm
Year
The year the movie is set to be released.
2021
Director
Jake Williams
Genre
Pick one or multiple movie genres.
Digital release
Official digital release date on services such as iTunes, Amazon, Netflix. It's the first known release date, without any country restriction. So if it's out on iTunes Russia first, this would be the digital release date.
July 06, 2021
Description
"Closed For Storm" is a documentary about the Six Flags amusement park in New Orleans, Louisiana. Due to the devastation of Hurricane Katrina in 2004, the park is completely abandoned and has remained untouched for fifteen years.
Where you watch

Where you watch Email alert

Yes, it is available and reported below. Use the alert button to get notified when higher quality versions are available.

Download and stream reports

Is there a Closed For Storm torrent? Yes. Reports are available below.
When will Closed For Storm be available on VOD? It's set for a July 06, 2021 release.

July 09, 2021
Closed.for.Storm.2020.1080p.WEBRip.AAC2.0.x264-NOGRP
Video and audio quality: 5/5 | Source: Official web stream

Submitted by: Mr. Meeseeks | Trust Rank level: Supreme Member
Format: Torrent | Site: RARBG
Video ID : 1 Format : AVC Format/Info : Advanced Video Codec Format profile : High@L4 Format settings : CABAC / 4 Ref Frames Format settings, CABAC : Yes Format settings, Reference frames : 4 frames Codec ID : V_MPEG4/ISO/AVC Duration : 1 h 17 min Bit rate : 4 911 kb/s Width : 1 912 pixels Height : 1 004 pixels Display aspect ratio : 1.904 Frame rate mode : Constant Frame rate : 23.976 (24000/1001) FPS Color space : YUV Chroma subsampling : 4:2:0 Bit depth : 8 bits Scan type : Progressive Bits/(Pixel*Frame) : 0.107 Stream size : 2.67 GiB (97%) Language : English Default : Yes Forced : No Color range : Limited Color primaries : BT.709 Transfer characteristics : BT.709 Matrix coefficients : BT.709 Audio ID : 2 Format : AAC LC Format/Info : Advanced Audio Codec Low Complexity Codec ID : A_AAC-2 Duration : 1 h 17 min Bit rate : 126 kb/s Channel(s) : 2 channels Channel layout : L R Sampling rate : 48.0 kHz Frame rate : 46.875 FPS (1024 SPF) Compression mode : Lossy Stream size : 70.1 MiB (3%) Language : English Default : Yes Forced : No Text ID : 3 Format : UTF-8 Codec ID : S_TEXT/UTF8 Codec ID/Info : UTF-8 Plain Text Duration : 1 h 12 min Bit rate : 93 b/s Count of elements : 1273 Stream size : 49.6 KiB (0%) Language : English Default : Yes Forced : No

Videos Add media

Closed For Storm (Official Documentary Trailer)
Closed For Storm (Official Documentary Trailer)