Richard Jewell

Richard Jewell

Hot
JuancoJuanco   August 30, 2017  
Add to list
Richard Jewell

Movie info

Title
Confirmed and upcoming movie titles only! Search before adding to avoid dupes.
Richard Jewell
Year
The year the movie is set to be released.
2019
Genre
Pick one or multiple movie genres.
Cinema release
First cinema release date in any country.
December 13, 2019
Digital release
Official digital release date on services such as iTunes, Amazon, Netflix. It's the first known release date, without any country restriction. So if it's out on iTunes Russia first, this would be the digital release date.
March 03, 2020
Description
Biopic about Richard Jewell, the security guard who discovered a suspicious backpack at the Atlanta Olympics in 1996, which contained three pipe bombs. Starring Sam Rockwell, Kathy Bates, Jon Hamm, Olivia Wilde, and Paul Walter Hauser.
Where you watch

Where you watch Email alert

Yes. The movie is online and reported below, Use the alert button to get notified when higher quality versions are available.

Download and stream reports

Can I download or stream Richard Jewell? Yes. Reports of pirated torrents and streams are available below.
When will Richard Jewell be available on digital platforms like iTunes or Amazon? It's set for a March 03, 2020 release. This likely includes iTunes and Amazon unless it is an exclusive Netflix, or similar, release. Physical versions on Blu-Ray or DVD will likely follow.

March 04, 2020
Richard.Jewell.2019.1080p.BluRay.x264-GECKOS
Video and audio quality: 5/5 | Source: BluRay

Submitted by: armiestice | Trust Rank level: Senior Member
Format: Torrent | Site: RARBG
Video ID : 1 Format : AVC Format/Info : Advanced Video Codec Format profile : High@L4.1 Format settings : CABAC / 5 Ref Frames Format settings, CABAC : Yes Format settings, Reference frames : 5 frames Codec ID : V_MPEG4/ISO/AVC Duration : 2 h 10 min Bit rate : 9 249 kb/s Width : 1 920 pixels Height : 808 pixels Display aspect ratio : 2.40:1 Frame rate mode : Constant Frame rate : 23.976 (24000/1001) FPS Color space : YUV Chroma subsampling : 4:2:0 Bit depth : 8 bits Scan type : Progressive Bits/(Pixel*Frame) : 0.249 Stream size : 8.46 GiB (86%) Writing library : x264 core 159 r2991 1771b55 Encoding settings : cabac=1 / ref=5 / deblock=1:-3:-3 / analyse=0x3:0x133 / me=umh / subme=8 / psy=1 / psy_rd=1.00:0.00 / mixed_ref=1 / me_range=16 / chroma_me=1 / trellis=1 / 8x8dct=1 / cqm=0 / deadzone=21,11 / fast_pskip=0 / chroma_qp_offset=-2 / threads=25 / lookahead_threads=4 / sliced_threads=0 / nr=0 / decimate=1 / interlaced=0 / bluray_compat=0 / constrained_intra=0 / bframes=3 / b_pyramid=2 / b_adapt=1 / b_bias=0 / direct=3 / weightb=1 / open_gop=0 / weightp=2 / keyint=250 / keyint_min=23 / scenecut=40 / intra_refresh=0 / rc_lookahead=50 / rc=2pass / mbtree=1 / bitrate=9249 / ratetol=1.0 / qcomp=0.60 / qpmin=0 / qpmax=69 / qpstep=4 / cplxblur=20.0 / qblur=0.5 / vbv_maxrate=62500 / vbv_bufsize=78125 / nal_hrd=none / filler=0 / ip_ratio=1.40 / aq=1:1.00 Default : Yes Forced : No Audio ID : 2 Format : DTS Format/Info : Digital Theater Systems Codec ID : A_DTS Duration : 2 h 10 min Bit rate mode : Constant Bit rate : 1 509 kb/s Channel(s) : 6 channels Channel layout : C L R Ls Rs LFE Sampling rate : 48.0 kHz Frame rate : 93.750 FPS (512 SPF) Bit depth : 24 bits Compression mode : Lossy Stream size : 1.38 GiB (14%) Language : English Default : Yes Forced : No
March 03, 2020
Richard.Jewell.2019.720p.WEBRip.900MB.x264-GalaxyRG
Video and audio quality: 5/5 | Source: Official web stream

Submitted by: Mr. Meeseeks | Trust Rank level: Supreme Member
Format: Torrent | Site: 1337x
Container = Matroska (mkv) Duration = 02:10:54.326 Filesize = 897 MiB Overall bitrate = 958 kb/s ViDEO Codec info = AVC High@L3.1 | V_MPEG4/ISO/AVC Resolution = 1280x544 Display AR = 2.388 | 2.40:1 Bitrate = 4 515 kb/s Framerate = VFR 23.976 Color space = YUV Chroma subsampling = 4:2:0 Encoder = x264 - core 148 r2748 97eaef2 AUDiO Codec info = AAC | A_AAC-2 Channels = 2 Bitrate = 384 kb/s Samplerate = 48.0 kHz Language = English
January 16, 2020
Richard.Jewell.2019.DVDScr.XVID.AC3.HQ.Hive-CM8
Video and audio quality: 4/5 | Source: Screener

Submitted by: Mavoy | Trust Rank level: Hero member
Format: Torrent | Site: 1337x
Better picture quality. Release Name: Richard.Jewell.2019.DVDScr.XVID.AC3.HQ.Hive-CM8 Size: 1.52GB Video: AVI | 720×304 | 1 398 kb/s Audio: English | AC3 | 256 kb/s Runtime: 2 h 10 min Subtitles: N/A
January 16, 2020
Richard.Jewell.2019.DVDSCR.x264-TOPKEK
Video and audio quality: 4/5 | Source: Screener

Submitted by: Mavoy | Trust Rank level: Hero member
Format: Torrent | Site: 1337x
Container = MPEG-4 (mp4) Duration = 02:10:51.218 Filesize = 836 MiB Overall bitrate = 894 kb/s ViDEO Codec info = AVC High@L3 | avc1 Resolution = 720x352 Display AR = 2.397 | 2.40:1 Bitrate = 720 kb/s Framerate = VFR 23.976 Color space = YUV Chroma subsampling = 4:2:0 Encoder = x264 - core 142 r2431 ac76440 AUDiO Codec info = AAC | mp4a-40-2 Channels = 2 Bitrate = VBR 162 kb/s Samplerate = 48.0 kHz Language = English Included subtitles English

Videos Add media

RICHARD JEWELL - Official Trailer [HD]
RICHARD JEWELL - Official Trailer [HD]