Atomic Blonde

Atomic Blonde

Alekhya DasAlekhya Das   August 30, 2017  
News (0)
Add to list
Atomic Blonde
Atomic Blonde 2017 720p HC HDRip X264 AC3-EVO
Atomic Blonde 2017 720p HC HDRip X264 AC3-EVO

Movie info

TITLE
Confirmed and upcoming movie titles only! Search before adding to avoid dupes.
YEAR
The year the movie is set to be released.
2017
GENRE
Pick one or multiple movie genres.
DESCRIPTION
There are few things that can be as thrilling as everlasting fights on film. That's why, when Lorraine Broughton, played by Charlize Theron, is perfectly badass. She is a super-cut spy, it's the 80's and she's going to East Berlin to find out more about the murder of a British agent colleague and reveal the names of double agents.
Sent alone to Berlin to bring invaluable acts out of the unstable city, she collaborates with local department chief David Percival to navigate through a game of life and death among spies.

So for those who want a tough female spy hero who can fight, in an aesthetic 80-century East Berlin with underground scenes and interrogation rooms, "Atomic Blonde" works well. If you want a well-written spy story, you will be disappointed.
WHERE YOU WATCH

Where you watch Email alert

The movie is online and reported below, Use the alert button to get notified when higher quality versions are available.

Reports

April 07, 2018
Atomic.Blonde.2017.1080p.BluRay.REMUX.AVC.DTS-X.7.1-FGT
Video and audio quality: 5/5 | Source: BluRay

Submitted by: Mr. Meeseeks | Trust Rank level: Legend Member
Format: Torrent | Site: RARBG
Video ID : 1 Format : AVC Format/Info : Advanced Video Codec Format profile : [email protected] Format settings : CABAC / 4 Ref Frames Format settings, CABAC : Yes Format settings, ReFrames : 4 frames Codec ID : V_MPEG4/ISO/AVC Duration : 1 h 54 min Bit rate mode : Variable Maximum bit rate : 34.0 Mb/s Width : 1 920 pixels Height : 1 080 pixels Display aspect ratio : 16:9 Frame rate mode : Constant Frame rate : 23.976 (24000/1001) FPS Color space : YUV Chroma subsampling : 4:2:0 Bit depth : 8 bits Scan type : Progressive Title : Atomic.Blonde.2017.1080p.BluRay.REMUX.AVC.DTS-X.7.1-FGT Language : English Default : No Forced : No Audio #1 ID : 2 Format : DTS Format/Info : Digital Theater Systems Format profile : X / MA / Core Codec ID : A_DTS Bit rate mode : Variable / Variable / Constant Bit rate : Unknown / Unknown / 1 509 kb/s Channel(s) : Object Based / 8 channels / 6 channels Channel positions : Object Based / Front: L C R, Side: L R, Back: L R, LFE / Front: L C R, Side: L R, LFE Sampling rate : / 48.0 kHz / 48.0 kHz Frame rate : 93.750 FPS (512 SPF) Bit depth : / 24 bits / 24 bits Compression mode : / Lossless / Lossy Title : Atomic.Blonde.2017.1080p.BluRay.REMUX.AVC.DTS-X.7.1-FGT Language : English Default : Yes Forced : No Audio #2 ID : 3 Format : DTS Format/Info : Digital Theater Systems Codec ID : A_DTS Duration : 1 h 54 min Bit rate mode : Constant Bit rate : 1 509 kb/s Channel(s) : 6 channels Channel positions : Front: L C R, Side: L R, LFE Sampling rate : 48.0 kHz Frame rate : 93.750 FPS (512 SPF) Bit depth : 24 bits Compression mode : Lossy Stream size : 1.21 GiB (4%) Title : Atomic.Blonde.2017.1080p.BluRay.REMUX.AVC.DTS-X.7.1-FGT Language : English Default : No Forced : No Audio #3 ID : 4 Format : DTS Format/Info : Digital Theater Systems Codec ID : A_DTS Duration : 1 h 54 min Bit rate mode : Constant Bit rate : 768 kb/s Channel(s) : 6 channels Channel positions : Front: L C R, Side: L R, LFE Sampling rate : 48.0 kHz Frame rate : 93.750 FPS (512 SPF) Bit depth : 24 bits Compression mode : Lossy Stream size : 630 MiB (2%) Title : Atomic.Blonde.2017.1080p.BluRay.REMUX.AVC.DTS-X.7.1-FGT Language : Spanish Default : No Forced : No Audio #4 ID : 5 Format : DTS Format/Info : Digital Theater Systems Codec ID : A_DTS Duration : 1 h 54 min Bit rate mode : Constant Bit rate : 768 kb/s Channel(s) : 6 channels Channel positions : Front: L C R, Side: L R, LFE Sampling rate : 48.0 kHz Frame rate : 93.750 FPS (512 SPF) Bit depth : 24 bits Compression mode : Lossy Stream size : 630 MiB (2%) Title : Atomic.Blonde.2017.1080p.BluRay.REMUX.AVC.DTS-X.7.1-FGT Language : French Default : No Forced : No Audio #5 ID : 6 Format : AC-3 Format/Info : Audio Coding 3 Codec ID : A_AC3 Duration : 1 h 54 min Bit rate mode : Constant Bit rate : 192 kb/s Channel(s) : 2 channels Channel positions : Front: L R Sampling rate : 48.0 kHz Frame rate : 31.250 FPS (1536 SPF) Bit depth : 16 bits Compression mode : Lossy Stream size : 158 MiB (0%) Title : Atomic.Blonde.2017.1080p.BluRay.REMUX.AVC.DTS-X.7.1-FGT Language : English Service kind : Complete Main Default : No Forced : No Audio #6 ID : 7 Format : AC-3 Format/Info : Audio Coding 3 Codec ID : A_AC3 Duration : 1 h 54 min Bit rate mode : Constant Bit rate : 192 kb/s Channel(s) : 2 channels Channel positions : Front: L R Sampling rate : 48.0 kHz Frame rate : 31.250 FPS (1536 SPF) Bit depth : 16 bits Compression mode : Lossy Stream size : 158 MiB (0%) Title : Atomic.Blonde.2017.1080p.BluRay.REMUX.AVC.DTS-X.7.1-FGT Language : English Service kind : Complete Main Default : No Forced : No Text #1 ID : 8 Format : PGS Muxing mode : zlib Codec ID : S_HDMV/PGS Codec ID/Info : Picture based subtitle format used on BDs/HD-DVDs Title : English-PGS Language : English Default : Yes Forced : No Text #2 ID : 9 Format : PGS Muxing mode : zlib Codec ID : S_HDMV/PGS Codec ID/Info : Picture based subtitle format used on BDs/HD-DVDs Title : Spanish-PGS Language : Spanish Default : No Forced : No Text #3 ID : 10 Format : PGS Muxing mode : zlib Codec ID : S_HDMV/PGS Codec ID/Info : Picture based subtitle format used on BDs/HD-DVDs Title : French-PGS Language : French Default : No Forced : No Text #4 ID : 11 Format : PGS Muxing mode : zlib Codec ID : S_HDMV/PGS Codec ID/Info : Picture based subtitle format used on BDs/HD-DVDs Title : Spanish-FORCED-PGS Language : Spanish Default : No Forced : No Text #5 ID : 12 Format : PGS Muxing mode : zlib Codec ID : S_HDMV/PGS Codec ID/Info : Picture based subtitle format used on BDs/HD-DVDs Title : French-FORCED-PGS Language : French Default : No Forced : No
October 14, 2017
Atomic.Blonde.2017.720p.HC.HDRip.900MB.MkvCage
Video and audio quality: 4/5 | Source: Foreign web stream

Submitted by: Ramona Flowers | Trust Rank level: Professional
Format: Torrent | Site: ThePirateBay
Hardcoded Korean Subtitles

Videos Add media

Atomic Blonde -  Restricted Trailer [HD]
Atomic Blonde - Restricted Trailer [HD]

Movie News

There are no member news items for this movie.
To write a comment please register or