Suburbicon

Suburbicon

MavoyMavoy   August 21, 2017  
News (0)
Add to list
Suburbicon

Movie info

TITLE
Confirmed and upcoming movie titles only! Search before adding to avoid dupes.
YEAR
The year the movie is set to be released.
2017
GENRE
Pick one or multiple movie genres.
CINEMA
First cinema release date in any country.
October 27, 2017
DESCRIPTION
This story of affordable homes and tailored lawns will be directed by George Clooney. The disturbing reality of such resources will be displayed on the platform based on the 1970s time where Matt Damon will act alongside Julianne Moore. The movie will be released on 27th October.
WHERE YOU WATCH

Where you watch Email alert

The movie is online and reported below, Use the alert button to get notified when higher quality versions are available.

Reports

April 07, 2018
Suburbicon.2017.1080p.BluRay.x264.DTS-HD.MA.5.1-FGT
Quality: 5/5 | Source: BluRay

Submitted by: Mr. Meeseeks | Trust Rank level: Hero member
Format: Torrent | Site: RARBG
Video ID : 1 Format : AVC Format/Info : Advanced Video Codec Format profile : High@L4.1 Format settings : CABAC / 5 Ref Frames Format settings, CABAC : Yes Format settings, ReFrames : 5 frames Codec ID : V_MPEG4/ISO/AVC Duration : 1 h 45 min Bit rate : 9 312 kb/s Width : 1 920 pixels Height : 808 pixels Display aspect ratio : 2.40:1 Frame rate mode : Constant Frame rate : 23.976 (24000/1001) FPS Color space : YUV Chroma subsampling : 4:2:0 Bit depth : 8 bits Scan type : Progressive Bits/(Pixel*Frame) : 0.250 Stream size : 6.83 GiB (72%) Audio ID : 2 Format : DTS Format/Info : Digital Theater Systems Format profile : MA / Core Codec ID : A_DTS Duration : 1 h 45 min Bit rate mode : Variable / Constant Bit rate : 3 560 kb/s / 1 509 kb/s Channel(s) : 6 channels Channel positions : Front: L C R, Side: L R, LFE Sampling rate : 48.0 kHz Frame rate : 93.750 FPS (512 SPF) Bit depth : 24 bits Compression mode : Lossless / Lossy Stream size : 2.61 GiB (28%) Title : Suburbicon.2017.1080p.BluRay.x264.DTS-HD.MA.5.1-FGT Language : English Default : Yes Forced : No Text #1 ID : 3 Format : UTF-8 Codec ID : S_TEXT/UTF8 Codec ID/Info : UTF-8 Plain Text Duration : 1 h 34 min Bit rate : 54 b/s Count of elements : 1281 Stream size : 37.7 KiB (0%) Title : English-SRT Language : English Default : Yes Forced : No Text #2 ID : 4 Format : UTF-8 Codec ID : S_TEXT/UTF8 Codec ID/Info : UTF-8 Plain Text Duration : 1 h 35 min Bit rate : 59 b/s Count of elements : 1423 Stream size : 41.4 KiB (0%) Title : English-SDH-SRT Language : English Default : No Forced : No Text #3 ID : 5 Format : PGS Muxing mode : zlib Codec ID : S_HDMV/PGS Codec ID/Info : Picture based subtitle format used on BDs/HD-DVDs Duration : 1 h 34 min Bit rate : 33.6 kb/s Count of elements : 2544 Stream size : 22.8 MiB (0%) Title : English-PGS Language : English Default : No Forced : No Text #4 ID : 6 Format : PGS Muxing mode : zlib Codec ID : S_HDMV/PGS Codec ID/Info : Picture based subtitle format used on BDs/HD-DVDs Duration : 1 h 35 min Bit rate : 38.5 kb/s Count of elements : 2847 Stream size : 26.2 MiB (0%) Title : English-SDH-PGS Language : English Default : No Forced : No Text #5 ID : 7 Format : PGS Muxing mode : zlib Codec ID : S_HDMV/PGS Codec ID/Info : Picture based subtitle format used on BDs/HD-DVDs Duration : 1 h 35 min Bit rate : 33.2 kb/s Count of elements : 2538 Stream size : 22.6 MiB (0%) Title : Spanish-PGS Language : Spanish Default : No Forced : No
January 22, 2018
Suburbicon.2017.READNFO.HDRip.XviD.AC3-EVO
Quality: 5/5 | Source: Official web stream

Submitted by: Mavoy | Trust Rank level: Standard member
Format: Torrent | Site: 1337x
Official HD copy

Videos Add media

Suburbicon Official Trailer #1 (2017) Matt Damon, Oscar Isaac Crime Comedy HD
Suburbicon Official Trailer #1 (2017) Matt Damon, ...

Movie News

There are no member news items for this movie.
To write a comment please register or