12 Strong

12 Strong

Hot
Scott PilgrimScott Pilgrim   December 20, 2017  
News (0)
Add to list
Poster

Movie info

TITLE
Confirmed and upcoming movie titles only! Search before adding to avoid dupes.
YEAR
The year the movie is set to be released.
2018
GENRE
Pick one or multiple movie genres.
DESCRIPTION
Also known as 12 Strong: The Declassified True Story of the Horse Soldiers.

12 Strong is the story of the first Special Forces team deployed in Afghanistan after 9/11, and how they worked with warlords to become an unstoppable cavalry unit.
WHERE YOU WATCH

Where you watch Email alert

The movie is online and reported below, Use the alert button to get notified when higher quality versions are available.

Reports

April 19, 2018
12.Strong.2018.1080p.BluRay.x264.DTS-HD.MA.5.1-FGT
Video and audio quality: 5/5 | Source: BluRay

Submitted by: Mr. Meeseeks | Trust Rank level: Legend Member
Format: Torrent | Site: RARBG
Video ID : 1 Format : AVC Format/Info : Advanced Video Codec Format profile : [email protected] Format settings : CABAC / 5 Ref Frames Format settings, CABAC : Yes Format settings, ReFrames : 5 frames Codec ID : V_MPEG4/ISO/AVC Duration : 2 h 9 min Bit rate : 9 337 kb/s Width : 1 920 pixels Height : 800 pixels Display aspect ratio : 2.40:1 Frame rate mode : Constant Frame rate : 23.976 (24000/1001) FPS Color space : YUV Chroma subsampling : 4:2:0 Bit depth : 8 bits Scan type : Progressive Bits/(Pixel*Frame) : 0.254 Stream size : 8.47 GiB (71%) Writing library : x264 core 155 r2901 7d0ff22 Audio ID : 2 Format : DTS Format/Info : Digital Theater Systems Format profile : MA / Core Codec ID : A_DTS Duration : 2 h 9 min Bit rate mode : Variable / Constant Bit rate : 3 725 kb/s / 1 509 kb/s Channel(s) : 6 channels Channel positions : Front: L C R, Side: L R, LFE Sampling rate : 48.0 kHz Frame rate : 93.750 FPS (512 SPF) Bit depth : 24 bits Compression mode : Lossless / Lossy Stream size : 3.38 GiB (28%) Title : 12.Strong.2018.1080p.BluRay.x264.DTS-HD.MA.5.1-FGT Language : English Default : Yes Forced : No Text #1 ID : 3 Format : UTF-8 Codec ID : S_TEXT/UTF8 Codec ID/Info : UTF-8 Plain Text Duration : 2 h 3 min Bit rate : 61 b/s Count of elements : 1717 Stream size : 55.8 KiB (0%) Title : English-SRT Language : English Default : Yes Forced : No Text #2 ID : 4 Format : PGS Muxing mode : zlib Codec ID : S_HDMV/PGS Codec ID/Info : Picture based subtitle format used on BDs/HD-DVDs Duration : 2 h 8 min Bit rate : 36.7 kb/s Count of elements : 3436 Stream size : 33.8 MiB (0%) Title : English-PGS Language : English Default : No Forced : No
April 03, 2018
12.Strong.2018.720p.WEB-DL.H264.AC3-EVO
Video and audio quality: 5/5 | Source: Official web stream

Submitted by: Mr. Meeseeks | Trust Rank level: Legend Member
Format: Torrent | Site: TorrentingMe
ViDEO: 3990 Kbps - Untouched iTunes file RESOLUTiON: 1280x530 RUNTiME: 02h 09m 43s SUBTiTLES: English for the foreign parts AUDiO: 384 Kbps AC3 5.1 LANGUAGE: ENGLiSH ENCODER: DdHD
January 18, 2018
12 Strong 2018 Movies HC HD TS x264 Clean Audio AAC
Video and audio quality: 1/5 | Source: Camera

Submitted by: Mr. Meeseeks | Trust Rank level: Legend Member
Format: Torrent | Site: ExtraTorrent
Hardcoded Arabic subtitles, the skulls of random moviegoers obstruct the view of camera.

Videos Add media

12 STRONG - Official Trailer
12 STRONG - Official Trailer

Movie News

There are no member news items for this movie.
To write a comment please register or