Where You Watch

The Vast of Night

February 08, 2020

Where You Watch doesn’t allow download links or streams. We only report where and when they are online.

Movie info

Title
Confirmed and upcoming movie titles only! Search before adding to avoid dupes.
The Vast of Night
Year
The year the movie is set to be released.
2020
Genre
Pick one or multiple movie genres.
Digital release
Official digital release date on services such as iTunes, Amazon, Netflix. It's the first known release date, without any country restriction. So if it's out on iTunes Russia first, this would be the digital release date.
May 29, 2020
Description
Starring Sierra McCormick, Jake Horowitz, Gail Cronauer, Cheyenne Barton, Gregory Peyton, and Bruce Davis.
Where you watch




Download and stream reports

Is The Vast of Night available online? Yes. Reports of pirated torrents and streams are available below.
When will The Vast of Night be available on digital platforms like iTunes or Amazon? It's set for a May 29, 2020 release. This likely includes iTunes and Amazon unless it is an exclusive Netflix, or similar, release. Physical versions on Blu-Ray or DVD will likely follow.

May 29, 2020
The.Vast.of.Night.2019.1080p.AMZN.WEBRip.DDP5.1.x264-NTG
Quality: 5/5 | Source: Official web stream
Submitted by: Mr. Meeseeks | Trust Rank level: Supreme Member
Format: Torrent | Site: RARBG
Video ID : 1 Format : AVC Format/Info : Advanced Video Codec Format profile : High@L4 Format settings : CABAC / 4 Ref Frames Format settings, CABAC : Yes Format settings, Reference frames : 4 frames Codec ID : V_MPEG4/ISO/AVC Duration : 1 h 30 min Bit rate mode : Constant Bit rate : 9 389 kb/s Nominal bit rate : 10 000 kb/s Width : 1 920 pixels Height : 800 pixels Display aspect ratio : 2.40:1 Frame rate mode : Constant Frame rate : 23.976 (24000/1001) FPS Color space : YUV Chroma subsampling : 4:2:0 Bit depth : 8 bits Scan type : Progressive Bits/(Pixel*Frame) : 0.255 Stream size : 5.97 GiB (94%) Default : Yes Forced : No Color range : Limited Color primaries : BT.709 Transfer characteristics : BT.709 Matrix coefficients : BT.709 Audio ID : 2 Format : E-AC-3 Format/Info : Enhanced AC-3 Commercial name : Dolby Digital Plus Codec ID : A_EAC3 Duration : 1 h 30 min Bit rate mode : Constant Bit rate : 640 kb/s Channel(s) : 6 channels Channel layout : L R C LFE Ls Rs Sampling rate : 48.0 kHz Frame rate : 31.250 FPS (1536 SPF) Compression mode : Lossy Stream size : 416 MiB (6%) Language : English Service kind : Complete Main Default : Yes Forced : No

Is The Vast of Night available online? Yes. Reports of pirated torrents and streams are available below.
When will The Vast of Night be available on digital platforms like iTunes or Amazon? It's set for a May 29, 2020 release. This likely includes iTunes and Amazon unless it is an exclusive Netflix, or similar, release. Physical versions on Blu-Ray or DVD will likely follow.