Where You Watch

The Pale Door

July 28, 2020

Where You Watch doesn’t allow download links or streams. We only report where and when they are online.

Movie info

Title
Confirmed and upcoming movie titles only! Search before adding to avoid dupes.
The Pale Door
Year
The year the movie is set to be released.
2020
Genre
Pick one or multiple movie genres.
Digital release
Official digital release date on services such as iTunes, Amazon, Netflix. It's the first known release date, without any country restriction. So if it's out on iTunes Russia first, this would be the digital release date.
August 21, 2020
Description
Starring Devin Druid, Zachary Knighton, Bill Sage, Pat Healy, Natasha Bassett, Stan Shaw, and Melora Walters.
Where you watch




Download and stream reports

Is The Pale Door available online? Yes. Reports of pirated torrents and streams are available below.
When will The Pale Door be available on digital platforms like iTunes or Amazon? It's set for a August 21, 2020 release. This likely includes iTunes and Amazon unless it is an exclusive Netflix, or similar, release. Physical versions on Blu-Ray or DVD will likely follow.

August 21, 2020
The.Pale.Door.2020.1080p.AMZN.WEBRip.DDP5.1.x264-NTG
Quality: 5/5 | Source: Official web stream
Submitted by: Mr. Meeseeks | Trust Rank level: Supreme Member
Format: Torrent | Site: RARBG
Video ID : 1 Format : AVC Format/Info : Advanced Video Codec Format profile : High@L4 Format settings : CABAC / 4 Ref Frames Format settings, CABAC : Yes Format settings, Reference frames : 4 frames Codec ID : V_MPEG4/ISO/AVC Duration : 1 h 36 min Bit rate mode : Constant Bit rate : 10 000 kb/s Width : 1 920 pixels Height : 1 040 pixels Display aspect ratio : 1.85:1 Frame rate mode : Constant Frame rate : 23.976 (24000/1001) FPS Color space : YUV Chroma subsampling : 4:2:0 Bit depth : 8 bits Scan type : Progressive Bits/(Pixel*Frame) : 0.209 Stream size : 6.54 GiB (94%) Default : Yes Forced : No Color range : Limited Color primaries : BT.709 Transfer characteristics : BT.709 Matrix coefficients : BT.709 Audio ID : 2 Format : E-AC-3 Format/Info : Enhanced AC-3 Commercial name : Dolby Digital Plus Codec ID : A_EAC3 Duration : 1 h 36 min Bit rate mode : Constant Bit rate : 640 kb/s Channel(s) : 6 channels Channel layout : L R C LFE Ls Rs Sampling rate : 48.0 kHz Frame rate : 31.250 FPS (1536 SPF) Compression mode : Lossy Stream size : 441 MiB (6%) Language : English Service kind : Complete Main Default : Yes Forced : No Text #1 ID : 3 Format : UTF-8 Codec ID : S_TEXT/UTF8 Codec ID/Info : UTF-8 Plain Text Duration : 1 h 32 min Bit rate : 38 b/s Count of elements : 1003 Stream size : 25.9 KiB (0%) Language : English Default : No Forced : No Text #2 ID : 4 Format : UTF-8 Codec ID : S_TEXT/UTF8 Codec ID/Info : UTF-8 Plain Text Duration : 1 h 35 min Bit rate : 42 b/s Count of elements : 1212 Stream size : 29.8 KiB (0%) Title : SDH Language : English Default : No Forced : No Text #3 ID : 5 Format : UTF-8 Codec ID : S_TEXT/UTF8 Codec ID/Info : UTF-8 Plain Text Duration : 1 h 35 min Bit rate : 37 b/s Count of elements : 1018 Stream size : 26.4 KiB (0%) Language : Spanish Default : No Forced : No

Is The Pale Door available online? Yes. Reports of pirated torrents and streams are available below.
When will The Pale Door be available on digital platforms like iTunes or Amazon? It's set for a August 21, 2020 release. This likely includes iTunes and Amazon unless it is an exclusive Netflix, or similar, release. Physical versions on Blu-Ray or DVD will likely follow.

Exit mobile version
Skip to toolbar