Where You Watch

Rent-A-Pal

August 06, 2020

Where You Watch doesn’t allow download links or streams. We only report where and when they are online.

Movie info

Title
Confirmed and upcoming movie titles only! Search before adding to avoid dupes.
Rent-A-Pal
Year
The year the movie is set to be released.
2020
Genre
Pick one or multiple movie genres.
Digital release
Official digital release date on services such as iTunes, Amazon, Netflix. It's the first known release date, without any country restriction. So if it's out on iTunes Russia first, this would be the digital release date.
September 11, 2020
Description
Starring Brian Landis Folkins, Wil Wheaton, Amy Rutledge, and Kathleen Brady.
Where you watch




Download and stream reports

Is Rent-A-Pal available online? Yes. Reports of pirated torrents and streams are available below.
When will Rent-A-Pal be available on digital platforms like iTunes or Amazon? It's set for a September 11, 2020 release. This likely includes iTunes and Amazon unless it is an exclusive Netflix, or similar, release. Physical versions on Blu-Ray or DVD will likely follow.

September 11, 2020
Rent.A.Pal.2020.1080p.WEB-DL.DD5.1.H264-FGT
Quality: 5/5 | Source: Official web stream
Submitted by: Mr. Meeseeks | Trust Rank level: Supreme Member
Format: Torrent | Site: RARBG
Video ID : 1 Format : AVC Format/Info : Advanced Video Codec Format profile : High@L4 Format settings : CABAC / 5 Ref Frames Format settings, CABAC : Yes Format settings, Reference frames : 5 frames Codec ID : V_MPEG4/ISO/AVC Duration : 1 h 48 min Bit rate : 4 545 kb/s Width : 1 920 pixels Height : 800 pixels Display aspect ratio : 2.40:1 Frame rate mode : Constant Frame rate : 23.976 (24000/1001) FPS Color space : YUV Chroma subsampling : 4:2:0 Bit depth : 8 bits Scan type : Progressive Bits/(Pixel*Frame) : 0.123 Stream size : 3.43 GiB (92%) Title : Rent.A.Pal.2020.1080p.WEB-DL.DD5.1.H264-FGT Language : English Default : Yes Forced : No Color range : Limited Color primaries : BT.709 Transfer characteristics : BT.709 Matrix coefficients : BT.709 Audio ID : 2 Format : AC-3 Format/Info : Audio Coding 3 Commercial name : Dolby Digital Codec ID : A_AC3 Duration : 1 h 48 min Bit rate mode : Constant Bit rate : 384 kb/s Channel(s) : 6 channels Channel layout : L R C LFE Ls Rs Sampling rate : 48.0 kHz Frame rate : 31.250 FPS (1536 SPF) Compression mode : Lossy Stream size : 297 MiB (8%) Title : Rent.A.Pal.2020.1080p.WEB-DL.DD5.1.H264-FGT Language : English Service kind : Complete Main Default : Yes Forced : No

Is Rent-A-Pal available online? Yes. Reports of pirated torrents and streams are available below.
When will Rent-A-Pal be available on digital platforms like iTunes or Amazon? It's set for a September 11, 2020 release. This likely includes iTunes and Amazon unless it is an exclusive Netflix, or similar, release. Physical versions on Blu-Ray or DVD will likely follow.

Exit mobile version
Skip to toolbar