Where You Watch

Mickey and the Bear

September 20, 2019

Where You Watch doesn’t allow download links or streams. We only report where and when they are online.

Movie info

Title
Confirmed and upcoming movie titles only! Search before adding to avoid dupes.
Mickey and the Bear
Year
The year the movie is set to be released.
2019
Genre
Pick one or multiple movie genres.
Cinema release
First cinema release date in any country.
November 13, 2019
Description
Starring James Badge Dale, Calvin Demba, Camila Morrone, Ben Rosenfield, and Rebecca Henderson.
Where you watch




Download and stream reports

Is Mickey and the Bear available online? Yes. Reports of pirated torrents and streams are available below.
When will Mickey and the Bear be available on digital platforms like iTunes or Amazon? As of now, there's no release data announced. This includes iTunes, Amazon, Blu-Ray or DVD.

February 14, 2020
Mickey.and.the.Bear.2019.1080p.AMZN.WEBRip.DDP5.1.x264-NTG
Quality: 5/5 | Source: Official web stream
Submitted by: Mr. Meeseeks | Trust Rank level: Supreme Member
Format: Torrent | Site: RARBG
Video ID : 1 Format : AVC Format/Info : Advanced Video Codec Format profile : High@L4 Format settings : CABAC / 4 Ref Frames Format settings, CABAC : Yes Format settings, Reference frames : 4 frames Codec ID : V_MPEG4/ISO/AVC Duration : 1 h 29 min Bit rate mode : Constant Bit rate : 9 321 kb/s Nominal bit rate : 10 000 kb/s Width : 1 920 pixels Height : 1 080 pixels Display aspect ratio : 16:9 Frame rate mode : Constant Frame rate : 23.976 (24000/1001) FPS Color space : YUV Chroma subsampling : 4:2:0 Bit depth : 8 bits Scan type : Progressive Bits/(Pixel*Frame) : 0.187 Stream size : 5.83 GiB (94%) Default : Yes Forced : No Color range : Limited Color primaries : BT.709 Transfer characteristics : BT.709 Matrix coefficients : BT.709 Audio ID : 2 Format : E-AC-3 Format/Info : Enhanced AC-3 Commercial name : Dolby Digital Plus Codec ID : A_EAC3 Duration : 1 h 29 min Bit rate mode : Constant Bit rate : 640 kb/s Channel(s) : 6 channels Channel layout : L R C LFE Ls Rs Sampling rate : 48.0 kHz Frame rate : 31.250 FPS (1536 SPF) Compression mode : Lossy Stream size : 410 MiB (6%) Language : English Service kind : Complete Main Default : Yes Forced : No Text #1 ID : 3 Format : UTF-8 Codec ID : S_TEXT/UTF8 Codec ID/Info : UTF-8 Plain Text Duration : 1 h 22 min Bit rate : 47 b/s Count of elements : 984 Stream size : 28.5 KiB (0%) Language : English Default : No Forced : No Text #2 ID : 4 Format : UTF-8 Codec ID : S_TEXT/UTF8 Codec ID/Info : UTF-8 Plain Text Duration : 1 h 24 min Bit rate : 51 b/s Count of elements : 1107 Stream size : 31.7 KiB (0%) Title : SDH Language : English Default : No Forced : No

Is Mickey and the Bear available online? Yes. Reports of pirated torrents and streams are available below.
When will Mickey and the Bear be available on digital platforms like iTunes or Amazon? As of now, there's no release data announced. This includes iTunes, Amazon, Blu-Ray or DVD.

Exit mobile version
Skip to toolbar