Mark, Mary + Some Other People

Mark, Mary + Some Other People

Mr. MeeseeksMr. Meeseeks   October 15, 2021  
Add to list
Mark, Mary + Some Other People

Movie info

Title
Confirmed and upcoming movie titles only! Search before adding to avoid dupes.
Mark, Mary + Some Other People
Year
The year the movie is set to be released.
2021
Director
Hannah Marks
Genre
Pick one or multiple movie genres.
Digital release
Official digital release date on services such as iTunes, Amazon, Netflix. It's the first known release date, without any country restriction. So if it's out on iTunes Russia first, this would be the digital release date.
November 05, 2021
Description
Starring Ben Rosenfield, Hayley Law, Nik Dodani, Matt Shively, Sofia Bryant, Kelli Berglund, Esther Povitsky, Joe Lo Truglio, and Haley Ramm.
Where you watch

Where you watch Email alert

Yes, it is available and reported below. Use the alert button to get notified when higher quality versions are available.

Download and stream reports

Is there a Mark, Mary + Some Other People torrent? Yes. Reports are available below.
When will Mark, Mary + Some Other People be available on VOD? It's set for a November 05, 2021 release.

November 05, 2021
Mark.Mary.and.Some.Other.People.2021.1080p.WEBRip.DD5.1.x264-NOGRP
Video and audio quality: 5/5 | Source: Official web stream

Submitted by: Mr. Meeseeks | Trust Rank level: Supreme Member
Format: Torrent | Site: RARBG
Video ID : 1 Format : AVC Format/Info : Advanced Video Codec Format profile : High@L4 Format settings : CABAC / 5 Ref Frames Format settings, CABAC : Yes Format settings, Reference frames : 5 frames Codec ID : V_MPEG4/ISO/AVC Duration : 1 h 29 min Bit rate : 6 731 kb/s Width : 1 912 pixels Height : 792 pixels Display aspect ratio : 2.40:1 Frame rate mode : Constant Frame rate : 23.976 (24000/1001) FPS Color space : YUV Chroma subsampling : 4:2:0 Bit depth : 8 bits Scan type : Progressive Bits/(Pixel*Frame) : 0.185 Stream size : 4.20 GiB (95%) Default : Yes Forced : No Color range : Limited Color primaries : BT.709 Transfer characteristics : BT.709 Matrix coefficients : BT.709 Audio ID : 2 Format : AC-3 Format/Info : Audio Coding 3 Commercial name : Dolby Digital Codec ID : A_AC3 Duration : 1 h 29 min Bit rate mode : Constant Bit rate : 384 kb/s Channel(s) : 6 channels Channel layout : L R C LFE Ls Rs Sampling rate : 48.0 kHz Frame rate : 31.250 FPS (1536 SPF) Compression mode : Lossy Stream size : 245 MiB (5%) Title : English Language : English Service kind : Complete Main Default : No Forced : No

Videos Add media

Mark, Mary & Some Other People | Official Trailer (HD) | Vertical Entertainment
Mark, Mary & Some Other People | Official Trailer ...